<?xml version="1.0" standalone="no"?>
<!DOCTYPE svg PUBLIC "-//W3C//DTD SVG 1.1//EN" "http://www.w3.org/Graphics/SVG/1.1/DTD/svg11.dtd">
<svg xmlns="http://www.w3.org/2000/svg">
  <metadata>Generated by Fontastic.me</metadata>
  <defs>
    <font id="gaxon" horiz-adv-x="512">
      <font-face font-family="gaxon" units-per-em="512" ascent="480" descent="-32"/>
      <missing-glyph horiz-adv-x="512"/>

      <glyph glyph-name="add" unicode="&#97;"
             d="M427 271l-156 0 0 156c0 8-6 17-17 17-11 0-13-9-13-17l0-156-156 0c-8 0-17-6-17-17 0-11 7-17 17-17l156 0 0-152c0-8 6-17 17-17 11 0 17 7 17 17l0 156 152 0c8 0 17 6 17 17 0 11-9 13-17 13z"/>
      <glyph glyph-name="add-circle" unicode="&#98;"
             d="M256 488c-127 0-232-105-232-232 0-127 105-232 232-232 127 0 232 105 232 232 0 127-105 232-232 232z m0-439c-115 0-207 92-207 207 0 115 92 207 207 207 115 0 207-92 207-207 0-115-92-207-207-207z m98 219l-86 0 0 86c0 7-5 12-12 12-7 0-12-5-12-12l0-86-86 0c-7 0-12-5-12-12 0-7 5-12 12-12l86 0 0-86c0-7 5-12 12-12 7 0 12 5 12 12l0 86 86 0c7 0 12 5 12 12 0 7-5 12-12 12z"/>
      <glyph glyph-name="affix" unicode="&#99;"
             d="M397 403c23 0 42 19 42 43 0 23-19 43-42 43l-290 0c-24 0-43-20-43-43 0-24 19-43 43-43l19 0 0-156c0 0-2 0-2-2l-34-51c-3-4-5-11 0-15 0-6 4-8 10-8l137 0 0-128c0-9 6-15 15-15 8 0 15 6 15 15l0 128 126 0c6 0 10 2 12 8 2 4 2 11 0 15l-34 51c0 0-2 2-2 2l0 156z m-305 45c0 9 6 15 15 15l292 0c8 0 15-6 15-15 0-9-9-15-17-15l-290 0c-9 0-15 6-15 15z m36-247l15 23 207 0 15-23z m211 51l-185 0 0 151 185 0z"/>
      <glyph glyph-name="alert" unicode="&#100;"
             d="M478 279c0 43-34 79-77 79l0 128c0 7-2 11-8 15-5 2-11 2-18 0l-170-100-75 0c-25 0-49-21-49-49l0-9-32 0c-8 0-17-6-17-17l0-134c0-9 6-17 17-17l32 0c0-24 17-43 41-47l0-73c0-25 21-49 49-49l8 0c26 0 49 22 49 49l0 62 154-76c2-3 4-3 6-3 2 0 7 0 9 3 4 2 8 8 8 12l0 145c39 5 73 39 73 81z m-414-72l0 104 17 0 0-104z m49-32l0 177c0 9 6 17 17 17l64 0 0-209-64 0c-11 0-17 6-17 15z m64-134l-8 0c-9 0-18 6-18 17l0 70 41 0 0-73c2-8-6-14-15-14z m192 40l-145 73 0 221 145 86z m32 152l0 96c26-3 45-22 45-47 0-26-19-47-45-49z"/>
      <glyph glyph-name="alert-new" unicode="&#101;"
             d="M459 399l-406 0c-27 0-49-21-49-49l0-190c0-28 22-49 49-49l406 0c27 0 49 21 49 49l0 190c0 28-22 49-49 49z m17-237c0-11-9-17-17-17l-406 0c-10 0-17 9-17 17l0 188c0 11 9 17 17 17l406 0c10 0 17-9 17-17z m-299 145c-6 7-17 7-23 0l-26-28-26 28c-6 7-17 7-23 0-6-6-6-17 0-23l26-26-26-25c-6-7-6-18 0-24 2-2 6-4 11-4 4 0 8 2 10 4l28 26 26-26c2-2 6-4 10-4 5 0 9 2 11 4 6 6 6 17 0 24l-26 25 26 26c8 6 8 17 2 23z m235-25l-158 0c-9 0-17-7-17-17 0-11 6-18 17-18l158 0c8 0 17 7 17 18 0 10-9 17-17 17z"/>
      <glyph glyph-name="all-contacts" unicode="&#102;"
             d="M491 378l-331 0c-9 0-17 6-17 17 0 10 6 17 17 17l331 0c8 0 17-7 17-17 0-11-9-17-17-17z m0-139l-331 0c-9 0-17 6-17 17 0 11 6 17 17 17l331 0c8 0 17-6 17-17 0-11-9-17-17-17z m0-137l-331 0c-9 0-17 7-17 17 0 11 6 18 17 18l331 0c8 0 17-7 17-18 0-10-9-17-17-17z m-414 293c0-16-13-28-28-28-15 0-28 12-28 28 0 15 13 27 28 27 15 0 28-12 28-27z m0-139c0-15-13-28-28-28-15 0-28 13-28 28 0 15 13 28 28 28 15 0 28-13 28-28z m0-139c0-15-13-27-28-27-15 0-28 12-28 27 0 16 13 28 28 28 15 0 28-12 28-28z"/>
      <glyph glyph-name="amchart" unicode="&#103;"
             d="M102 175c-42 0-85 2-87 2-9 0-15 6-15 15 0 9 6 15 15 15 43 0 60 32 79 66 17 32 34 62 70 62 32 0 54-26 71-53 10 19 19 34 34 34 21 0 36-19 45-32 4-5 8-13 12-15 3 2 11 13 15 19 9 13 20 28 34 28 13 0 22-13 39-37 21-29 51-72 81-74 8 0 15-7 15-15 0-9-7-15-15-15l-203 0c-25 0-42 21-57 47-15-21-37-43-69-47-17 0-40 0-64 0z m-19 30c28 0 60 0 81 2 26 2 43 23 56 45-17 27-34 53-56 53-17 0-27-17-42-47-11-17-24-38-39-53z m171 47c13-24 28-45 40-45l143 0c-19 17-34 40-47 58-4 6-10 14-15 21-2-4-6-9-8-13-11-15-21-32-41-32-17 0-27 15-36 26-6 8-13 17-19 19-4-4-9-15-13-24-2-2-2-6-4-10z m117 38z"/>
      <glyph glyph-name="anchor" unicode="&#104;"
             d="M94 329c0 0 0 2 0 0l0 151c0 9-7 17-17 17-11 0-15-8-15-17l0-149c0 0 0-2 0-2-28-7-49-32-49-62 0-30 21-56 49-62 0 0 0-2 0-2l0-171c0-9 6-17 17-17 11 0 17 6 17 17l0 171c0 0 0 2 0 2 28 6 49 32 49 62 0 30-23 55-51 62z m-17-105c-24 0-43 19-43 43 0 23 19 42 43 42 23 0 42-19 42-42 0-24-19-43-42-43z m170 239l235 0c9 0 17 6 17 17 0 11-8 15-17 15l-235 0c-8 0-17-6-17-17 0-11 9-15 17-15z m235-75l-235 0c-8 0-17-6-17-17 0-10 7-17 17-17l235 0c9 0 17 7 17 17 0 11-8 17-17 17z m0-106l-235 0c-8 0-17-7-17-17 0-11 7-18 17-18l235 0c9 0 17 7 17 18 0 10-8 17-17 17z m0-107l-235 0c-8 0-17-6-17-17 0-11 7-17 17-17l235 0c9 0 17 6 17 17 0 11-8 17-17 17z m0-107l-235 0c-8 0-17-6-17-17 0-10 7-17 17-17l235 0c9 0 17 7 17 17 0 11-8 17-17 17z"/>
      <glyph glyph-name="apps" unicode="&#105;"
             d="M21 491l133 0 0-133-133 0z m0-169l133 0 0-132-133 0z m0-168l133 0 0-133-133 0z m169 337l132 0 0-133-132 0z m0-169l132 0 0-132-132 0z m0-168l132 0 0-133-132 0z m168 337l133 0 0-133-133 0z m0-169l133 0 0-132-133 0z m0-168l133 0 0-133-133 0z"/>
      <glyph glyph-name="apps-new" unicode="&#106;"
             d="M43 256l192 0 0 192-192 0z m21 171l149 0 0-150-149 0z m-21-406l192 0 0 192-192 0z m21 171l149 0 0-149-149 0z m213 256l0-192 192 0 0 192z m171-171l-149 0 0 150 149 0z m-64-85l-21 0 0-64-64 0 0-21 64 0 0-64 21 0 0 64 64 0 0 21-64 0z"/>
      <glyph glyph-name="arrow-left" unicode="&#107;"
             d="M491 256l-433 0 113 149c4 7 4 17-2 24-9 4-20 4-24-2l-132-177c-4-7-4-13 0-20l132-177c2-4 9-6 13-6 4 0 6 0 8 4 7 4 9 15 3 22l-114 149 436 0c8 0 17 6 17 17 0 11-9 17-17 17z"/>
      <glyph glyph-name="arrow-right" unicode="&#108;"
             d="M26 256l433 0-113 149c-5 7-5 17 2 24 6 4 17 4 23-2l132-177c5-7 5-13 0-20l-132-177c-2-4-8-6-13-6-4 0-6 0-8 4-7 4-9 15-2 22l113 149-435 0c-9 0-17 6-17 17 0 11 8 17 17 17z"/>
      <glyph glyph-name="attachment" unicode="&#109;"
             d="M224 32c-4 0-9 2-11 4-6 7-6 17 0 24l231 230c17 17 27 41 27 66 0 26-10 49-27 66-37 37-96 37-133 0l-251-251c-11-11-17-28-17-43 0-17 6-32 17-43 23-23 64-23 87 0l233 233c13 13 13 34 0 47-13 13-34 13-47 0l-207-207c-7-7-17-7-24 0-6 6-6 17 0 23l207 207c26 26 66 26 92 0 26-25 26-66 0-91l-232-237c-37-37-96-37-133 0-36 36-36 96 0 132l252 252c49 49 128 49 177 0 24-24 36-56 36-90 0-34-12-66-36-89l-230-229c-2-4-7-4-11-4z"/>
      <glyph glyph-name="auth-screen" unicode="&#110;"
             d="M237 335l-137 0c-8 0-15 6-15 17 0 11 7 17 17 17l137 0c8 0 17-6 17-17 0-11-11-17-19-17z m0-68l-137 0c-8 0-17 6-17 17 0 10 9 15 17 15l137 0c8 0 17-7 17-17 0-11-9-15-17-15z m0-69l-137 0c-8 0-17 7-17 17 0 11 7 18 17 18l137 0c8 0 17-7 17-18 0-10-9-17-17-17z m141-72c-39 0-71 32-71 70 0 39 32 71 71 71 38 0 70-32 70-71 0-38-32-70-70-70z m0 107c-22 0-39-18-39-39 0-21 17-38 39-38 21 0 38 17 38 38 0 21-19 39-38 39z m87-229c-8 0-17 7-17 17 0 34-28 62-62 62l-19 0c-34 0-62-28-62-62 0-8-6-17-17-17-11 0-17 7-17 17 0 52 43 94 94 94l19 0c51 0 94-42 94-94 2-8-4-17-13-17z m-247 0l-175 0c-9 0-17 7-17 17l0 465c0 9 6 17 17 17l426 0c9 0 17-6 17-17l0-194c0-8-6-17-17-17-10 0-17 7-17 17l0 179-392 0 0-433 158 0c8 0 17-6 17-17 0-10-9-17-17-17z"/>
      <glyph glyph-name="autocomplete" unicode="&#111;"
             d="M452 399l-119 0-71 92c-2 4-6 6-12 6-5 0-9-2-13-6l-58-92-119 0c-30 0-54-24-54-53l0-276c0-29 24-53 54-53l392 0c30 0 54 24 54 53l0 273c2 30-24 56-54 56z m26-331c0-13-11-25-26-25l-392 0c-13 0-26 10-26 25l0 275c0 13 11 26 26 26l128 0c4 0 10 2 13 6l53 82 62-82c2-4 6-6 13-6l128 0c12 0 25-11 25-26l0-275z m-79 75l-275 0c-9 0-15-6-15-15 0-9 6-15 15-15l275 0c8 0 15 6 15 15 0 9-7 15-15 15z m0 79l-275 0c-9 0-15-7-15-15 0-9 6-15 15-15l275 0c8 0 15 6 15 15 0 8-7 15-15 15z m0 79l-275 0c-9 0-15-7-15-15 0-9 6-15 15-15l275 0c8 0 15 6 15 15 0 8-7 15-15 15z"/>
      <glyph glyph-name="avatar" unicode="&#112;"
             d="M256 506c-139 0-250-111-250-250 0-85 43-162 109-207 41-28 88-43 141-43 139 0 252 113 252 252 0 137-113 248-252 248z m-111-438c19 45 62 75 111 75 49 0 92-30 111-75-32-19-70-30-111-30-41-2-79 11-111 30z m250 19c-26 54-79 88-139 88-60 0-113-34-139-88-49 41-81 101-81 169 2 122 98 218 220 218 122 0 220-99 220-220 0-66-32-128-81-167z m-139 301c-51 0-94-42-94-94 0-51 43-93 94-93 51 0 94 42 94 93 0 52-43 94-94 94z m0-155c-34 0-62 27-62 61 0 35 28 62 62 62 34 0 62-27 62-62 0-34-28-61-62-61z"/>
      <glyph glyph-name="backtop" unicode="&#113;"
             d="M269 341c-7 5-13 5-19 0l-86-64c-6-4-8-15-2-23 2-4 9-7 13-7 4 0 6 0 8 3l58 42 0-228c0-9 6-17 17-17 11 0 17 6 17 17l0 235 62-47c6-5 17-5 21 2 5 6 5 17-2 23z m179 122l-384 0c-9 0-15-6-15-15 0-9 6-17 15-17l384 0c9 0 17 6 17 17 0 11-8 15-17 15z"/>
      <glyph glyph-name="badge" unicode="&#114;"
             d="M501 369c0-71-57-128-128-128-70 0-128 57-128 128 0 71 58 128 128 128 71 0 128-57 128-128z m-128-171c-94 0-170 77-170 171 0 15 2 30 6 43l-145 0c-30 0-53-24-53-54l0-292c0-30 23-53 53-53l318 0c30 0 53 23 53 53l0 143c-19-6-40-11-62-11z"/>
      <glyph glyph-name="basic-calendar" unicode="&#115;"
             d="M198 290l118 0c21 0 38 17 38 39l0 117c0 21-17 38-38 38l-118 0c-21 0-38-17-38-38l0-117c0-22 17-39 38-39z m9 64l38 77c2 2 2 4 7 6 2 2 4 2 8 2 2 0 7 0 9-2 2-2 4-4 6-6l39-77c0-2 2-4 2-4 0-2-2-7-5-9-2-2-6-4-8-4-2 0-4 0-6 2-3 2-5 2-5 4l-6 15-51 0-7-15c0-2-2-4-4-4-2-2-4-2-6-2-5 0-7 2-9 4-2 0-2 5-2 7 0 2 0 4 0 6z m51 56l-15-32 30 0z m-126-271c2 2 5 4 5 6 0 4-3 6-5 9-2 2-6 2-10 2l-20 0 0-19 20 0c4-3 8 0 10 2z m-8-24l-22 0 0-21 22 0c4 0 8 0 10 2 3 2 5 4 5 9 0 4-2 6-5 8-2 2-4 2-10 2z m55 107l-117 0c-21 0-39-17-39-39l0-117c0-21 18-38 39-38l117 0c22 0 39 17 39 38l0 117c0 22-17 39-39 39z m-21-135c-2-4-7-6-13-8-6-2-11-4-19-4l-36 0c-5 0-7 0-9 2-2 2-2 4-2 8l0 77c0 4 0 7 2 9 2 2 4 2 9 2l36 0c11 0 19-2 25-7 7-4 9-10 9-19 0-4-2-10-4-13-2-2-7-6-11-8 6-2 11-4 13-9 2-4 4-8 4-15 0-6 0-10-4-15z m292 139l-117 0c-22 0-39-17-39-38l0-118c0-21 17-38 39-38l117 0c21 0 39 17 39 38l0 118c2 21-18 38-39 38z m-68-121c4-5 11-9 19-9 2 0 6 0 9 2 2 0 6 2 10 4 2 0 5 3 5 3 0 0 2 0 4 0 2 0 4 0 6-3 2-2 2-4 2-6 0-2 0-4 0-4 0-2-2-2-4-5-8-6-19-8-32-8-11 0-19 2-26 6-8 5-12 11-17 17-4 9-6 17-6 28 0 11 2 19 6 28 5 8 11 13 17 17 9 4 18 6 26 6 13 0 24-2 32-8 2-2 2-2 4-4 0-3 0-3 0-5 0-2 0-6-2-6-2-2-4-2-6-2-2 0-2 0-4 0-3 0-3 2-5 2-4 2-6 4-8 4-2 0-7 2-9 2-8 0-15-2-19-8-4-5-6-13-6-24-3-15 0-21 4-27z"/>
      <glyph glyph-name="birthday" unicode="&#116;"
             d="M137 158c12-17 19-28 34-28 15 0 21 11 34 28 13 19 30 40 62 40 32 0 49-23 62-40 12-17 19-28 34-28 15 0 21 11 34 28 13 19 30 40 62 40 0 0 2 0 2 0l0 17c0 39-30 69-68 69l-101 0 0 59c0 22-17 37-36 37-19 0-36-17-36-37l0-59-101 0c-38 0-68-30-68-69l0-21c7 2 15 4 24 4 32 0 49-21 62-40z m328-96l-4 0 0 102c0 0-2 0-2 0-15 0-22-10-34-27-13-20-30-41-62-41-32 0-49 23-62 41-13 17-19 27-34 27-15 0-22-10-34-27-13-20-30-41-62-41-32 0-49 23-62 41-13 17-19 27-34 27-11 0-17-4-24-13l0-89-4 0c-15 0-26-11-26-26 0-15 11-25 26-25l418 0c15 0 26 10 26 25 0 15-11 26-26 26z m-209 339c21 0 36 17 36 36l0 26c0 21-17 36-36 36-19 0-36-17-36-36l0-26c0-19 15-36 36-36z"/>
      <glyph glyph-name="birthday-new" unicode="&#117;"
             d="M499 51l-13 0 0 115c0 21-10 39-25 52l0 76c0 36-28 64-64 64l-13 0 0 18c15 8 26 31 26 59 0 33-29 59-31 62-5 5-13 5-18 0 0 0-31-29-31-62 0-28 10-51 26-61l0-16-90 0 0 18c16 8 26 31 26 62 0 33-28 59-31 61-5 5-13 5-18 0 0 0-31-28-31-61 0-28 11-51 26-62l0-18-84 0 0 18c15 8 25 31 25 59 0 33-28 59-31 62-5 5-12 5-17 0 0 0-29-26-29-62 0-28 11-51 26-61l0-16-13 0c-36 0-64-28-64-64l0-76c-15-13-25-31-25-52l0-115-13 0c-8 0-13-5-13-13 0-7 5-12 13-12l153 0c8 0 13 5 13 12 0 8-5 13-13 13l-115 0 0 74c13-2 23-10 33-20 13-13 31-28 62-28 33 0 49 15 64 28 13 13 23 23 46 23 23 0 33-10 46-23 15-13 31-28 64-28 33 0 49 15 64 28 10 10 18 18 33 20l0-74-192 0c-7 0-12-5-12-13 0-7 5-12 12-12l231 0c7 0 13 5 13 12 0 8-8 13-16 13z m-128 417c5-7 13-20 13-33 0-25-10-38-13-38-2 0-13 15-13 38 0 13 8 26 13 33z m-115 0c5-7 13-20 13-33 0-25-10-38-13-38-3 0-13 15-13 38 0 13 8 26 13 33z m-115 0c5-7 13-20 13-33 0-25-11-38-13-38-3 0-13 15-13 38 0 13 8 26 13 33z m320-314c-23-6-39-18-51-29-13-12-23-23-46-23-24 0-34 11-47 23-12 13-28 29-61 29-33 0-49-16-64-29-13-12-23-23-46-23-23 0-33 11-46 23-13 13-26 26-51 29l0 12c2 21 20 39 41 39l102 0c8 0 13 5 13 13 0 7-5 12-13 12l-102 0c-6 0-8 0-13-2l0 66c0 21 18 39 38 39l282 0c20 0 38-18 38-39l0-66c-5 0-7 2-13 2l-128 0c-7 0-12-5-12-12 0-8 5-13 12-13l128 0c21 0 39-18 39-39z m-282 12c0-7-6-12-13-12-7 0-12 5-12 12 0 7 5 13 12 13 7 0 13-6 13-13z m103-76c0-7-6-13-13-13-7 0-13 6-13 13 0 7 6 12 13 12 7 0 13-5 13-12z m-52-52c0-7-5-12-12-12-7 0-13 5-13 12 0 7 6 13 13 13 7 0 12-6 12-13z m26 180c0-7-6-13-13-13-7 0-13 6-13 13 0 7 6 12 13 12 7 0 13-5 13-12z m128-52c0-7-6-12-13-12-7 0-13 5-13 12 0 7 6 13 13 13 7 0 13-6 13-13z m-256 128c0-7-6-12-13-12-7 0-13 5-13 12 0 7 6 13 13 13 7 0 13-6 13-13z m282 0c0-7-6-12-13-12-7 0-13 5-13 12 0 7 6 13 13 13 7 0 13-6 13-13z m-154 0c0-7-6-12-13-12-7 0-13 5-13 12 0 7 6 13 13 13 7 0 13-6 13-13z m77-25c0-7-6-13-13-13-7 0-13 6-13 13 0 7 6 13 13 13 7 0 13-6 13-13z m-154 0c0-7-6-13-13-13-7 0-12 6-12 13 0 7 5 13 12 13 7 0 13-6 13-13z m-77-103c0-7-5-12-12-12-7 0-13 5-13 12 0 7 6 13 13 13 7 0 12-6 12-13z"/>
      <glyph glyph-name="bitcoin" unicode="&#118;"
             d="M343 299c0 23-19 42-42 42l-22 0 0 32c0 7-4 11-10 11-7 0-11-4-11-11l0-32-21 0 0 32c0 7-4 11-11 11-6 0-11-4-11-11l0-32-32 0c-6 0-10-4-10-10l0-128c0-7 4-11 10-11l32 0 0-32c0-6 5-11 11-11 7 0 11 5 11 11l0 32 21 0 0-32c0-6 4-11 11-11 4 0 10 5 10 11l0 32 22 0c21 0 40 19 42 43 0 12-6 23-14 32 8 8 14 19 14 32z m-21-64c0-13-11-22-21-22l-107 0 0 43 107 0c13 0 21-9 21-21z m-128 42l0 43 107 0c13 0 21-9 21-21 0-13-11-22-21-22z m258-27c-6 0-10-5-13-11-14-85-89-149-177-149-98 0-179 81-179 179 0 98 81 179 179 179 62 0 122-34 154-90 4-6 11-8 17-4 6 4 9 11 4 17-36 62-102 100-175 100-111 0-202-91-202-204 0-113 91-205 202-205 101 0 184 72 201 175 0 6-4 10-11 13z m5 49c0-6-5-11-11-11-6 0-11 5-11 11 0 6 5 10 11 10 6 0 11-4 11-10z"/>
      <glyph glyph-name="breadcrumb" unicode="&#119;"
             d="M282 256l-148 171-79 0c-21 0-40-17-40-41l0-260c0-21 19-41 40-41l111 0z m81 171l-148 0 146-171-118-171 139 0 109 152c8 10 6 25-2 36z"/>
      <glyph glyph-name="burger" unicode="&#120;"
             d="M341 352c0-6-4-11-10-11-6 0-11 5-11 11 0 6 5 11 11 11 6 0 10-5 10-11z m-234-85c0-6-5-11-11-11-6 0-11 5-11 11 0 6 5 10 11 10 6 0 11-4 11-10z m320-128c0-6-5-11-11-11-6 0-11 5-11 11 0 6 5 10 11 10 6 0 11-4 11-10z m-278 64c0 6-9 10-21 10-12 0-21-4-21-10 0-6 9-11 21-11 12 0 21 5 21 11z m86 21c0 6-10 11-22 11-11 0-21-5-21-11 0-6 10-11 21-11 12 0 22 5 22 11z m-128-43c0 6-10 11-22 11-11 0-21-5-21-11 0-6 10-10 21-10 12 0 22 4 22 10z m106 0c0 6-9 11-21 11-12 0-21-5-21-11 0-6 9-10 21-10 12 0 21 4 21 10z m-42 64c0 6-10 11-22 11-11 0-21-5-21-11 0-6 10-10 21-10 12 0 22 4 22 10z m106-64c0 6-9 11-21 11-12 0-21-5-21-11 0-6 9-10 21-10 12 0 21 4 21 10z m212 175c-5 7-7 13-11 22-2 4-4 10-7 15-2 4-4 10-6 12-4 2-13 0-19 0-7 0-11 0-17 0-15 0-30 0-45 0-21 0-43 0-64 0 0 0 0 54 0 54 0 6-4 10-11 10l-85 0c-6 0-11-4-11-10 0-7 5-11 11-11l75 0c0 0 0-43 0-43-24 0-45 0-69 0-6 0-12 0-19 0-4 0-13 2-15-2-4-2-4-10-6-13-2-6-4-10-9-15-2-6-6-12-8-19-2-2-2-8 0-10 2-3 4-5 8-5l13 0 13-51c0 0 0 0 0-2 0-2 0-2 0-4-15 4-30 6-45 6-15 0-28-2-43-4-6-2-10-7-8-13 2-6 6-11 13-8 13 2 25 4 38 4 13 0 24-2 36-4 7-3 11-3 17-5 22-8 41-17 56-32 13-13 23-32 26-51 0-2 0-4 0-4 0-4 0-7 0-11l-263 0c0 4 0 7 0 11 0 28 15 53 41 70 4 4 6 11 2 15-4 4-11 7-15 2-32-21-51-53-51-87 0-7 2-13 2-19-7-5-13-13-13-24 0-6 2-11 6-17 3-4 5-8 9-11 2-2 4-2 4-4 0-2-2-4-2-6 0 0 0-30 0-30 0-17 15-32 32-32l224 0c2 0 2 0 4 0 0-7 5-11 11-11l107 0c4 0 8 4 10 9 0 0 13 64 13 64 2 8-6 13-13 13 0 0-2 0-2 0-30 0-57 0-87 0 0 0 0 2 0 2 6 6 8 12 8 23 0 9-4 17-10 24 2 6 2 10 2 17 0 4 0 10-2 15l100 0c0 0-2-9-2-9 0-6 2-11 8-13 7 0 11 5 13 9l34 168 13 0c4 0 6 2 9 5 2 4 2 6 0 10z m-419-217c-2-11-12-20-27-20-2 0-5 0-7 0-2 0-2 0-4 0 0 0-2 0-2 0-4 3-9 7-9 11 0 9 9 9 9 9z m222 2c2 0 5 0 7-2 6-2 8-11 2-17-4-5-11-5-17-5-13 0-26 9-28 22 0 0 30 0 32 0 2 2 4 2 4 2z m-87-22c-15 0-26 9-28 22l58 0c-5-13-15-22-30-22z m-83-2c-15 0-26 11-30 22l57 0c0-13-12-22-27-22z m-41 0c4-6 11-10 17-12l-32 0c7 2 11 6 15 12z m83 0c5-6 11-10 17-12l-34 0c7 2 13 6 17 12z m81 0c5-6 11-10 20-15l-39 0c9 5 15 9 19 15z m-196-64c-6 0-11 5-11 11l0 19 246 0 0-19c0-6-5-11-11-11z m248-10c4 6 8 12 8 21l0 21c2 0 2 0 4 0l86 0-9-42z m123 166c-2 0-2 0-4 0l-109 0c-13 30-40 53-74 68l200 0z m17 90l-209 0-10 42 59 0c7 0 11 5 11 11 0 6-4 11-11 11-25 0-53 0-79 0 0 0 11 21 11 21l243 0 11-21-79 0c-6 0-11-5-11-11 0-6 5-11 11-11l62 0z"/>
      <glyph glyph-name="button" unicode="&#121;"
             d="M433 158l-352 0c-32 0-58 25-58 57l0 116c-2 32 26 59 58 59l352 0c32 0 58-27 58-59l0-116c0-32-26-57-58-57z"/>
      <glyph glyph-name="calendar" unicode="&#122;"
             d="M491 467l-39 0c-8 0-17-6-17-17 0-11 7-17 17-17l24 0 0-85-438 0 0 85 24 0c8 0 17 6 17 17 0 11-11 17-19 17l-39 0c-8 0-17-6-17-17l0-429c0-8 7-17 17-17l470 0c8 0 17 7 17 17l0 431c0 9-9 15-17 15z m-453-431l0 282 438 0 0-282z m139 399l156 0c8 0 17 7 17 17 0 11-7 17-17 17l-156 0c-8 0-17-6-17-17 0-10 9-17 17-17z m177-202l-215 0c-9 0-17-7-17-18 0-10 6-17 17-17l215 0c9 0 17 7 17 17 0 11-8 18-17 18z m0-99l-215 0c-9 0-17-6-17-17 0-10 6-17 17-17l215 0c9 0 17 7 17 17 0 11-8 17-17 17z m-235 263c9 0 18 6 18 17l0 77c0 8-7 17-18 17-10 0-17-9-17-17l0-79c0-9 9-15 17-15z m274 0c8 0 17 6 17 17l0 77c0 8-7 17-17 17-11 0-15-9-15-17l0-79c0-9 6-15 15-15z"/>
      <glyph glyph-name="calendar-new" unicode="&#65;"
             d="M422 461l-12 0 0 51-77 0 0-51-154 0 0 51-77 0 0-51-12 0c-36 0-64-28-64-64l0-333c0-36 28-64 64-64l332 0c36 0 64 28 64 64l0 333c0 36-28 64-64 64z m0-435l-332 0c-21 0-39 18-39 38l0 243 410 0 0-243c0-20-18-38-39-38z m-166 153l102 0 0-102-102 0z"/>
      <glyph glyph-name="callout" unicode="&#66;"
             d="M256 452l196 0 0-196-196 0z m-196-196l196 0 0-196-196 0z m138 83c9 0 15 7 15 15 0 9-6 15-15 15l-138 0c-7 0-15-6-15-15 0-8 6-15 15-15z m254-166l-136 0c-9 0-15-7-15-15 0-9 6-15 15-15l136 0c9 0 15 6 15 15 0 8-8 15-15 15z"/>
      <glyph glyph-name="camera" unicode="&#67;"
             d="M429 85l-346 0c-30 0-55 26-55 56l0 215c0 30 25 56 55 56l58 0 40 40c2 2 7 5 11 5l128 0c4 0 9-3 11-5l38-38 62 0c30 0 55-26 55-56l0-215c0-32-25-58-57-58z m-346 295c-13 0-23-11-23-24l0-215c0-13 10-24 23-24l348 0c13 0 23 11 23 24l0 215c0 13-10 24-23 24l-68 0c-5 0-9 2-11 4l-38 38-116 0-40-36c-2-4-7-6-11-6z m173-229c-55 0-100 45-100 101 0 55 45 100 100 100 55 0 100-45 100-100 0-56-45-101-100-101z m0 169c-38 0-68-30-68-68 0-39 30-69 68-69 38 0 68 30 68 69 0 38-30 68-68 68z m149 13c0-12-9-22-21-22-12 0-21 10-21 22 0 12 9 21 21 21 12 0 21-9 21-21z"/>
      <glyph glyph-name="camera-2" unicode="&#68;"
             d="M341 96c0-6-4-11-10-11-6 0-11 5-11 11 0 6 5 11 11 11 6 0 10-5 10-11z m-149 235c0-6-5-11-11-11-6 0-10 5-10 11 0 6 4 10 10 10 6 0 11-4 11-10z m256 96c-4 25-26 42-53 42l-64 0c-26 0-47-17-54-42l-128 0c0 23-19 42-42 42-24 0-43-19-43-42-26-7-43-28-43-54l0-234c0-30 24-54 54-54l192 0c6 0 10 5 10 11 0 6-4 11-10 11l-192 0c-17 0-32 15-32 32l0 234c0 17 15 32 32 32l362 0c17 0 32-15 32-32l0-234c0-17-15-32-32-32l-42 0c-7 0-11-5-11-11 0-6 4-11 11-11l42 0c30 0 54 24 54 54l0 234c0 26-20 47-43 54z m-341 21c12 0 21-9 21-21l-43 0c0 12 9 21 22 21z m224 0l64 0c12 0 25-9 30-21l-124 0c4 12 17 21 30 21z m-75-77c-13 0-26-2-38-6-7-2-9-7-7-13 2-6 7-9 13-6 11 2 21 4 32 4 53 0 96-43 96-96 0-53-43-96-96-96-53 0-96 43-96 96 0 13 2 25 6 36 3 7 0 13-6 15-4 2-11 0-13-4-6-15-8-30-8-45 0-64 53-117 117-117 64 0 117 53 117 115 0 64-53 117-117 117z m0-179c36 0 64 28 64 64 0 36-28 64-64 64-36 0-64-28-64-64 0-36 28-64 64-64z m0 107c23 0 43-20 43-43 0-23-20-43-43-43-23 0-43 20-43 43 0 23 20 43 43 43z"/>
      <glyph glyph-name="card" unicode="&#69;"
             d="M452 448l-392 0c-30 0-54-26-54-55l0-274c0-29 26-55 56-55l390 0c30 0 56 26 56 55l0 274c0 29-26 55-56 55z m-392-32l390 0c13 0 24-11 24-23l0-103-436 0 0 103c0 12 9 23 22 23z m392-320l-392 0c-13 0-24 11-24 23l0 141 438 0 0-141c2-12-9-23-22-23z m-333 241l118 0c8 0 17 6 17 17 0 11-7 17-17 17l-118 0c-8-2-17-8-17-17 0-8 9-17 17-17z m274-143l-274 0c-8 0-17-6-17-17 0-11 7-17 17-17l274 0c8 0 17 6 17 17 0 11-9 17-17 17z"/>
      <glyph glyph-name="cards-list-view" unicode="&#70;"
             d="M158 256c0-21-17-38-39-38-21 0-38 17-38 38 0 21 17 38 38 38 22 0 39-17 39-38z m254 11l-197 0c-8 0-14-7-14-15 0-9 6-15 14-15l197 0c8 0 15 6 15 15 0 8-7 15-15 15z m40 130l-392 0c-30 0-54-24-54-54l0-177c0-29 24-53 54-53l390 0c30 0 53 24 53 53l0 177c3 30-21 54-51 54z m24-228c0-13-11-24-24-24l-392 0c-13 0-24 11-24 24l0 174c0 13 11 24 24 24l390 0c13 0 24-11 24-24l0-174z"/>
      <glyph glyph-name="carousel" unicode="&#71;"
             d="M139 154l-118 0c-8 0-17-7-17-17 0-11 7-18 17-18l118 0c8 0 17 7 17 18 0 10-9 17-17 17z m352 0l-118 0c-8 0-17-7-17-17 0-11 7-18 17-18l118 0c8 0 17 7 17 18 0 10-9 17-17 17z m-175 0l-118 0c-8 0-17-7-17-17 0-11 7-18 17-18l118 0c8 0 17 7 17 18 0 10-9 17-17 17z m-109 185c2 0 2 0 4 0 0 2 2 2 2 2 5 5 11 7 15 9 5 2 11 2 17 2 7 0 13-2 15-4 5-5 7-9 7-15 0-4-2-11-5-15-2-4-6-11-12-17l-45-45c-2-2-4-6-4-11 0-2 0-6 2-6 2-2 4-4 8-4l79 0c9 0 13 4 13 10 0 7-4 11-13 11l-55 0 36 36c8 9 15 17 17 24 4 6 4 15 4 21 0 11-4 21-13 28-8 6-19 10-34 10-8 0-17-2-23-4-9-2-15-6-21-10 0-5-3-5-3-7 0-2-2-2-2-4 0-2 0-4 2-7 3-4 5-4 9-4z"/>
      <glyph glyph-name="cascader" unicode="&#72;"
             d="M448 245c-32 0-58-23-62-53l-109 0c-4 30-32 53-62 53-29 0-59-23-64-53l-44 0c-15 0-26 13-26 26l0 49c28 8 47 34 47 64 0 36-28 64-64 64-36 0-64-28-64-64 0-30 21-56 47-62l0-49c0-32 26-58 58-58l46 0c9-25 32-43 60-43 28 0 51 18 60 43l115 0c9-25 32-43 60-43 36 0 64 28 64 64 0 37-28 62-62 62z m-420 86c0 21 17 36 36 36 19 0 36-17 36-36 0-20-15-39-36-39-21 0-36 17-36 39z m185-186c-21 0-36 17-36 36 0 22 17 37 36 37 20 0 37-17 37-37 2-21-15-36-37-36z m235 0c-21 0-36 17-36 36 0 22 17 37 36 37 21 0 36-17 36-37 0-21-17-36-36-36z"/>
      <glyph glyph-name="chart" unicode="&#73;"
             d="M497 0l-463 0c-19 0-34 15-34 34l0 463c0 9 6 15 15 15 8 0 15-6 15-15l0-461c0-2 2-4 4-4l461 0c8 0 15-6 15-15 0-8-4-17-13-17z m-360 119c-9 0-15 7-15 15l0 81c0 9 6 15 15 15 8 0 14-6 14-15l0-81c0-6-8-15-14-15z m119 0c-9 0-15 7-15 15l0 160c0 9 6 15 15 15 9 0 15-6 15-15l0-160c0-6-6-15-15-15z m119 0c-8 0-14 7-14 15l0 241c0 9 6 15 14 15 9 0 15-6 15-15l0-241c3-6-6-15-15-15z"/>
      <glyph glyph-name="chart-area" unicode="&#74;"
             d="M501 314c0 2 0 2 0 2 0 0 0 2-2 2 0 0 0 0 0 2 0 0 0 0-2 2 0 0-2 2-2 2 0 0-2 2-2 2 0 0-2 0-2 3 0 0-2 0-2 0 0 0-3 0-3 0 0 0 0 0-2 0 0 0-2 0-2 0 0 0-2 0-2-3 0 0 0 0-2 0l-77-49-49 101c-2 4-6 8-13 8-4 0-10 0-15-4l-143-143-47 47c-4 4-8 4-12 4-5 0-9-2-11-6l-73-96 0 298c0 9-6 17-17 17-10 0-15-8-15-17l0-465c0-8 7-17 17-17l466 0c8 0 17 7 17 17l-5 293c0-3 0-3 0 0z m-377-67l47-44c6-7 17-7 23 0l139 138 49-96c2-4 6-6 11-8 4-2 8 0 12 2l69 43 0-101-71-44-77 115-115-156-83 60-90-120 0 96z"/>
      <glyph glyph-name="chart-area-new" unicode="&#75;"
             d="M491 36l-455 0 0 269 133-100c6-4 12-4 19 0l87 81 209-122c2-2 5-2 7-2 4 0 10 2 12 7 5 6 3 14-4 19l-217 128c-7 4-13 4-20 0l-85-81-141 106 0 150c0 8-6 15-15 15-8 0-15-7-15-15l0-470c0-8 7-15 15-15l470 0c8 0 15 7 15 15 0 9-7 15-15 15z"/>
      <glyph glyph-name="chart-bar" unicode="&#76;"
             d="M493 36l-455 0 0 69 205 0c11 0 19 8 19 19 0 10-8 19-19 19l-205 0 0 43 431 0c11 0 20 8 20 19 0 10-9 19-20 19l-431 0 0 77 205 0c11 0 19 8 19 19 0 11-8 19-19 19l-205 0 0 43 431 0c11 0 20 8 20 19 0 11-9 17-20 17l-431 0 0 73c0 8-6 15-15 15-8 0-14-7-14-15l0-470c0-8 6-15 14-15l470 0c8 0 15 7 15 15 0 9-7 15-15 15z"/>
      <glyph glyph-name="chart-composed" unicode="&#77;"
             d="M425 92c40 42 66 100 66 164 0 64-26 122-69 164 0 0 0 2-2 2 0 0 0 0-2 0-40 43-98 69-162 69-64 0-124-26-164-69-45-42-71-102-71-166 0-64 26-122 69-164 0 0 0-2 2-2 0 0 2 0 2-3 40-40 98-66 162-66 64 0 122 26 164 66 0 0 2 0 2 3 0 0 0 2 3 2z m-13 27l-26 26c24 30 41 68 41 111 0 43-15 81-41 109l26 25c32-36 51-83 51-136 0-49-19-98-51-135z m-194 137c0 21 17 38 38 38 21 0 38-17 38-38 0-21-17-38-38-38-21 0-38 17-38 38z m74 55c-10 7-23 11-36 11-13 0-26-4-36-11l-54 56c26 21 56 32 90 32 34 0 66-13 90-32z m-91-19c-7-10-11-23-11-36 0-13 4-26 11-36l-54-54c-21 26-32 56-32 90 0 34 13 66 32 90z m19-91c10-7 23-11 36-11 13 0 26 4 36 11l54-54c-26-19-56-32-90-32-34 0-66 13-90 32z m91 19c7 10 11 23 11 36 0 13-4 26-11 36l54 54c19-26 32-56 32-90 0-34-13-66-32-90z m82 192l-26-26c-30 24-68 41-111 41-43 0-81-15-111-41l-26 26c37 32 86 51 137 51 51 0 100-19 137-51z m-293-19l26-26c-24-30-41-68-41-111 0-43 15-81 41-111l-26-26c-32 37-51 84-51 137 0 51 19 100 51 137z m19-293l26 26c30-26 68-41 111-41 43 0 81 15 111 41l26-26c-37-32-84-51-137-51-51 0-100 19-137 51z"/>
      <glyph glyph-name="chart-line" unicode="&#78;"
             d="M491 36l-446 0 55 109 60-51c2-2 6-4 11-4 4 0 8 2 10 6l143 179 49-53c2-2 7-4 11-4 4 0 9 2 11 6l106 130c5 7 5 15-2 21-6 5-15 5-21-2l-94-117-49 53c-2 2-6 5-11 5-4 0-8-3-10-7l-145-181-62 53c-5 2-9 4-13 4-4 0-9-4-11-8l-47-94 0 410c0 8-6 15-15 15-8 0-15-7-15-15l0-470c0 0 0-2 0-2 0 0 0-2 0-2 0 0 0-2 3-2 0 0 0-2 2-2 0 0 2-2 2-2 0 0 0 0 2-2 2 0 4-3 6-3l470 0c8 0 15 7 15 15 0 9-7 15-15 15z"/>
      <glyph glyph-name="chart-pie" unicode="&#79;"
             d="M218 486c-111-17-197-115-197-230 0-130 105-235 235-235 115 0 213 86 230 197l-268 0z m38 5l0-235 235 0c0 130-105 235-235 235z"/>
      <glyph glyph-name="chart-radar" unicode="&#80;"
             d="M461 367c0 2 0 4-2 6-2 2-2 5-5 5l-192 111c-2 2-4 2-6 2-2 0-4 0-6-2l-192-111c-3 0-5-3-5-5-2-2-2-4-2-6l0-222c0-2 0-4 2-6 2-2 2-5 5-5l192-111c2-2 4-2 6-2 2 0 4 0 6 2l192 111c3 3 5 3 5 5 2 2 2 4 2 6z m-382-24l72-42 0-90-72-42z m164-283l-149 87 72 43 77-45z m0 115l-51 28 49 27 0-55z m-64 53l0 58 49-28z m64 51l-51 30 49 28 0-58z m0 90l-77-45-72 43 149 87z m26 83l149-87-72-43-77 45z m0-115l51-28-49-27 0 55z m64-53l0-58-49 30z m-64-51l49-28-49-28z m0-173l0 85 77 45 72-43z m164 109l-72 42 0 90 72 42z"/>
      <glyph glyph-name="chart-radial" unicode="&#81;"
             d="M271 491l0-231 220 0c-2 124-98 222-220 231z m160-391c32 37 53 81 60 130l-197 0z m-190 391c-122-9-220-109-220-235 0-60 24-115 60-156l160 152z m-139-412c41-36 94-58 154-58 60 0 113 22 154 58l-154 147z"/>
      <glyph glyph-name="chart-scatter" unicode="&#82;"
             d="M491 36l-455 0 0 455c0 8-6 15-15 15-8 0-15-7-15-15l0-470c0-8 7-15 15-15l470 0c8 0 15 7 15 15 0 9-7 15-15 15z m-333 239c0-21-17-38-39-38-21 0-38 17-38 38 0 21 17 39 38 39 22 0 39-18 39-39z m136 139c0-21-17-39-38-39-21 0-38 18-38 39 0 21 17 38 38 38 21 0 38-17 38-38z m0-256c0-21-17-39-38-39-21 0-38 18-38 39 0 21 17 38 38 38 21 0 38-17 38-38z m118 139c0-22-17-39-39-39-21 0-38 17-38 39 0 21 17 38 38 38 22 0 39-17 39-38z"/>
      <glyph glyph-name="chart-tree" unicode="&#83;"
             d="M348 201c-22 0-37-18-37-37 0-4 0-6 3-10l-43-35 0 131 60 49c4-2 10-5 17-5 21 0 36 17 36 37 0 21-17 36-36 36-22 0-37-17-37-36 0-5 0-7 3-11l-43-34 0 192c-2 6-9 13-15 13-9 0-13-7-13-13l0-117-42 34c2 4 2 8 2 10 0 22-17 37-37 37-19 0-38-17-38-39 0-21 17-36 36-36 7 0 11 2 17 4l60-47 0-130-43 34c3 5 3 9 3 11 0 21-18 36-37 36-19 0-36-17-36-36 0-21 17-36 36-36 7 0 11 2 17 4l60-47 0-122c0-8 6-12 13-12 8 0 13 6 13 12l0 47 59 49c5-2 11-4 17-4 22 0 37 17 37 36 4 20-13 35-32 35z"/>
      <glyph glyph-name="charvlet-down" unicode="&#84;"
             d="M256 154c-4 0-6 0-11 4l-228 171c-4 4-6 14-2 23 6 6 17 6 23 2l218-164 218 164c6 4 17 4 21-2 4-6 4-17-2-23l-228-171c-3-2-5-4-9-4z"/>
      <glyph glyph-name="charvlet-left" unicode="&#85;"
             d="M156 256c0 4 0 6 4 11l171 228c4 6 15 8 23 2 7-4 9-15 2-23l-166-218 164-218c4-6 4-17-2-21-6-4-17-4-23 2l-171 228c-2 3-2 5-2 9z"/>
      <glyph glyph-name="charvlet-right" unicode="&#86;"
             d="M356 256c0-4 0-6-4-11l-171-228c-4-6-15-8-23-2-7 4-9 15-2 23l166 218-164 218c-4 6-4 17 2 23 6 4 17 4 23-2l171-228c2-5 2-7 2-11z"/>
      <glyph glyph-name="charvlet-up" unicode="&#87;"
             d="M256 356c4 0 6 0 11-4l228-171c6-4 8-15 2-23-4-7-15-9-23-2l-218 166-218-164c-6-4-17-4-21 2-4 6-4 17 2 23l228 171c3 2 5 2 9 2z"/>
      <glyph glyph-name="chat" unicode="&#88;"
             d="M457 493l-395 0c-30 0-56-26-56-56l0-277c0-30 26-55 56-55l113 0 0-84c0-6 4-10 8-15 3-2 5-2 7-2 4 0 6 0 8 2l135 96 124 0c29 0 55 26 55 56l0 277c0 32-26 58-55 58z m23-333c0-13-11-23-23-23l-128 0c-5 0-7 0-9-3l-113-81 0 69c0 8-6 17-17 17l-128 0c-13 0-24 10-24 23l0 277c0 13 11 24 24 24l395 0c12 0 23-11 23-24z m-87 233l-278 0c-8 0-15-7-15-15 0-9 7-17 15-17l278 0c8 0 17 6 17 17 0 10-9 15-17 15z m0-79l-278 0c-8 0-15-7-15-15 0-9 7-17 17-17l278 0c8 0 17 6 17 17 0 10-11 15-19 15z m0-79l-278 0c-8 0-17-7-17-17 0-11 7-17 17-17l278 0c8 0 17 6 17 17 0 10-9 17-17 17z"/>
      <glyph glyph-name="chat-bubble" unicode="&#89;"
             d="M258 484c-136 0-247-85-247-190 0-64 40-123 111-157l0-94c0-7 2-11 8-15 2-2 4-2 9-2 2 0 6 0 8 2l118 74c134 3 243 88 243 190 0 107-113 192-250 192z m0-347c-2 0-6 0-8-3l-96-61 0 72c0 6-5 13-9 15-64 30-102 79-102 134 0 88 96 158 215 158 120 0 216-70 216-158 0-87-96-157-216-157z m-77 157c0-21-17-38-38-38-21 0-38 17-38 38 0 22 17 39 38 39 21 0 38-17 38-39z m116 0c0-21-18-38-39-38-21 0-38 17-38 38 0 22 17 39 38 39 21 0 39-17 39-39z m117 0c0-21-17-38-39-38-21 0-38 17-38 38 0 22 17 39 38 39 22 0 39-17 39-39z"/>
      <glyph glyph-name="chat-new" unicode="&#90;"
             d="M215 21c-4 0-8 0-12 2-15 7-24 22-24 39l0 60-121 0c-32 2-58 32-58 70l0 230c0 39 26 69 58 69l396 0c32 0 58-30 58-69l0-230c0-36-26-68-58-68l-121 0-94-92c-6-6-15-11-24-11z m-157 438c-15 0-28-17-28-37l0-230c0-19 13-36 25-36l139 0c9 0 15-7 15-17l0-75c0-4 2-9 4-9 0 0 2 0 5 0l98 96c2 3 6 5 10 5l128 0c15 0 26 17 26 36l0 230c0 20-13 37-26 37z m347-81l-305 0c-8 0-15 8-15 17 0 8 7 17 15 17l305 0c9 0 15-7 15-17 0-11-6-17-15-17z m0-84l-305 0c-8 0-15 9-15 17 0 9 7 18 15 18l305 0c9 0 15-7 15-18 0-10-6-17-15-17z m0-85l-305 0c-8 0-15 6-15 17 0 11 7 17 15 17l305 0c9 0 15-6 15-17 0-11-6-17-15-17z"/>
      <glyph glyph-name="check" unicode="&#48;"
             d="M175 113c-4 0-9 2-13 4l-136 139c-7 6-7 17 0 23 6 7 17 7 23 0l126-125 288 241c6 6 17 4 23-2 7-7 5-18-2-24l-298-252c-3-2-7-4-11-4z"/>
      <glyph glyph-name="check-circle-o" unicode="&#49;"
             d="M256 4c-139 0-250 113-250 252 0 139 111 250 250 250 139 0 252-113 252-252 0-137-113-250-252-250z m0 470c-122 0-218-96-218-218 0-122 99-220 220-220 122 0 220 98 220 220-2 122-100 218-222 218z m-47-310c-4 0-8 2-11 5l-81 81c-6 6-6 17 0 23 7 6 17 6 24 0l72-72 167 140c6 7 17 5 23-2 7-6 4-17-2-23l-177-150c-9 0-13-2-15-2z"/>
      <glyph glyph-name="check-cricle" unicode="&#50;"
             d="M256 506c-139 0-250-111-250-250 0-139 113-252 252-252 139 0 252 113 252 252-2 139-115 250-254 250z m141-188l-177-149c-2-3-7-5-11-5-4 0-8 2-11 5l-81 81c-6 6-6 17 0 23 7 6 17 6 24 0l72-72 167 140c6 7 17 5 23-2 0-4 0-15-6-21z"/>
      <glyph glyph-name="check-square" unicode="&#51;"
             d="M491 506l-470 0c-8 0-15-7-15-15l0-470c0-8 7-17 17-17l470 0c8 0 17 7 17 17l0 470c-2 8-11 15-19 15z m-75-180l-230-166c-3-2-7-2-9-2-4 0-8 2-13 6l-70 83c-7 7-4 18 2 24 6 6 17 4 23-2l60-73 218 158c6 4 17 4 21-4 7-9 4-19-2-24z"/>
      <glyph glyph-name="check-square-o" unicode="&#52;"
             d="M491 4l-470 0c-8 0-17 7-17 17l0 470c0 8 7 17 17 17l470 0c8 0 17-7 17-17l0-470c0-8-9-17-17-17z m-453 32l438 0 0 438-438 0z m137 122c-4 0-9 2-13 6l-70 83c-7 7-5 18 2 24 6 6 17 4 23-2l60-73 218 158c6 4 17 4 21-4 4-7 4-17-4-21l-226-169c-5-2-7-2-11-2z"/>
      <glyph glyph-name="chevron-down" unicode="&#53;"
             d="M256 143c-4 0-9 2-11 4l-192 192c-6 9-6 17 0 24 7 6 17 6 24 0l181-182 179 182c7 6 17 6 24 0 6-7 6-17 0-24l-192-192c-4-2-9-4-13-4z"/>
      <glyph glyph-name="chevron-left" unicode="&#54;"
             d="M145 256c0 4 2 9 4 11l192 192c7 6 17 6 24 0 6-7 6-17 0-24l-182-179 182-181c6-7 6-17 0-24-7-6-17-6-24 0l-192 192c-4 4-4 9-4 13z"/>
      <glyph glyph-name="chevron-right" unicode="&#55;"
             d="M369 256c0-4-2-9-4-11l-192-192c-7-6-17-6-24 0-6 7-6 17 0 24l182 181-182 179c-6 7-6 15 0 22 7 6 17 6 24 0l192-192c2-2 4-7 4-11z"/>
      <glyph glyph-name="chevron-up" unicode="&#56;"
             d="M256 367c4 0 9-2 11-4l192-192c6-7 6-17 0-24-7-6-17-6-24 0l-179 182-181-180c-7-6-17-6-24 0-6 7-6 17 0 24l192 192c4 2 9 2 13 2z"/>
      <glyph glyph-name="circle" unicode="&#57;"
             d="M256 4c-139 0-250 113-250 252 0 139 111 250 250 250 139 0 252-113 252-252 0-137-113-250-252-250z"/>
      <glyph glyph-name="circle-o" unicode="&#33;"
             d="M256 4c-139 0-250 113-250 252 0 139 111 250 250 250 139 0 252-113 252-252 0-137-113-250-252-250z m0 470c-122 0-218-96-218-218 0-122 99-220 220-220 122 0 220 98 220 220-2 122-100 218-222 218z"/>
      <glyph glyph-name="ckeditor" unicode="&#34;"
             d="M137 395c0-11-9-20-20-20-10 0-19 9-19 20 0 10 9 19 19 19 11 0 20-9 20-19z m55 0c0-11-9-20-19-20-11 0-19 9-19 20 0 10 8 19 19 19 10 0 19-9 19-19z m55 0c0-11-8-20-19-20-10 0-19 9-19 20 0 10 9 19 19 19 11 0 19-9 19-19z m18-133l-148 0c-8 0-17-6-17-17 0-10 7-17 17-17l148 0c8 0 17 7 17 17 0 11-9 17-17 17z m0-74l-148 0c-8 0-17-7-17-17 0-11 7-17 17-17l148 0c8 0 17 6 17 17 0 10-9 17-17 17z m166-17c-9 0-17-7-17-17l0-37c0-10-9-21-21-21l-314 0c-11 0-21 9-21 21l0 205 373 0c8 0 17 7 17 17l0 75c0 30-23 53-53 53l-316 0c-30 0-53-23-53-53l0-297c0-30 23-53 53-53l314 0c29 0 53 23 53 53l0 37c2 8-7 17-15 17z m-352 262l314 0c10 0 21-8 21-21l0-58-354 0 0 60c0 11 8 19 19 19z m239-294l34 2 139 138-32 32-137-138z"/>
      <glyph glyph-name="close" unicode="&#35;" d="M155 176l181 181 23-23-181-181z m0 160l23 23 181-181-23-23z"/>
      <glyph glyph-name="close-circle" unicode="&#36;"
             d="M256 4c-139 0-250 113-250 252 0 139 111 250 250 250 139 0 252-113 252-252 0-137-113-250-252-250z m0 470c-122 0-218-96-218-218 0-122 99-220 220-220 122 0 220 98 220 220-2 122-100 218-222 218z m-101-298l181 181 23-23-181-181z m0 160l23 23 181-181-23-23z"/>
      <glyph glyph-name="collapse" unicode="&#37;"
             d="M506 412c0 8-7 17-17 17l-301 0c-9-2-15-9-15-17 0-9 6-17 17-17l301 0c6 0 15 8 15 17z m-455-77c2-2 7-2 9-2 4 0 10 2 13 6l44 62c5 6 5 13 0 19l-44 58c-5 6-15 8-22 4-8-4-8-15-4-21l38-54-38-51c-4-6-4-17 4-21z m438-102l-282 0c-9 0-17-7-17-18 0-10 6-17 17-17l282 0c8 0 17 7 17 17 0 11-9 18-17 18z m0-175l-282 0c-9 0-17-7-17-17 0-11 6-18 17-18l282 0c8 0 17 7 17 18 0 10-9 17-17 17z m-357 192l-49-39-49 39c-6 6-17 4-23-3-7-6-5-17 2-23l60-45c2-2 6-4 10-4 4 0 7 2 11 4l60 45c6 6 8 15 2 23-7 7-17 9-24 3z"/>
      <glyph glyph-name="company" unicode="&#38;"
             d="M448 333l-141 0 0 115c0 8-5 13-13 13l-256 0c-7 0-12-5-12-13l0-384c0-8 5-13 12-13l410 0c8 0 13 5 13 13l0 77c0 7-5 13-13 13-8 0-13-6-13-13l0-64-128 0 0 230 128 0 0-64c0-7 5-13 13-13 8 0 13 6 13 13l0 77c0 8-5 13-13 13z m-397 102l231 0 0-358-52 0 0 77 13 0c8 0 13 5 13 12 0 8-5 13-13 13l-153 0c-8 0-13-5-13-13 0-7 5-12 13-12l12 0 0-77-51 0z m77-358l0 77 77 0 0-77z m-51 333l25 0 0-26-25 0z m256-128l25 0 0-26-25 0z m51 0l26 0 0-26-26 0z m-51-52l25 0 0-25-25 0z m51 0l26 0 0-25-26 0z m-51-51l25 0 0-25-25 0z m51 0l26 0 0-25-26 0z m-256 231l26 0 0-26-26 0z m51 0l26 0 0-26-26 0z m51 0l26 0 0-26-26 0z m-153-52l25 0 0-25-25 0z m51 0l26 0 0-25-26 0z m51 0l26 0 0-25-26 0z m51 0l26 0 0-25-26 0z m-153-51l25 0 0-25-25 0z m51 0l26 0 0-25-26 0z m51 0l26 0 0-25-26 0z m51 0l26 0 0-25-26 0z m-153-51l25 0 0-26-25 0z m51 0l26 0 0-26-26 0z m51 0l26 0 0-26-26 0z m51 0l26 0 0-26-26 0z m231-64c0-7-6-13-13-13-7 0-13 6-13 13 0 7 6 13 13 13 7 0 13-6 13-13z"/>
      <glyph glyph-name="components" unicode="&#39;"
             d="M512 213l0 86-92 0c-4 15-10 30-19 44l64 64-60 60-64-64c-12 9-27 15-44 19l0 90-86 0 0-92c-13-4-28-8-42-17l-64 64-60-60 64-64c-9-14-13-29-17-44l-92 0 0-86 92 0c4-15 10-30 19-44l-64-64 60-60 64 64c12-9 27-15 44-19l0-90 86 0 0 92c15 4 30 10 45 19l64-64 59 60-64 64c9 12 15 27 20 44l87 0z m-256-42c-47 0-85 38-85 85 0 47 38 85 85 85 47 0 85-38 85-85 0-47-38-85-85-85z"/>
      <glyph glyph-name="compose" unicode="&#40;"
             d="M237 113l-173 0c-26 0-47 21-47 47l0 222c0 25 21 47 47 47l318 0c25 0 47-22 47-47l0-60c0-8-7-15-15-15-9 0-15 7-15 15l0 60c0 8-6 17-17 17l-318 0c-9 0-17-6-17-17l0-222c0-9 6-17 17-17l173 0c8 0 15-6 15-15 0-9-7-15-15-15z m-15 120c-4 0-7 2-11 4l-126 102c-6 4-8 15-2 22 7 6 15 6 24 2l117-96 115 96c7 4 17 4 22-2 6-7 4-18-3-22l-125-104c-3-2-7-2-11-2z m224 49l34-35c2-2 4-2 6 0l26 26c2 2 2 4 0 6l-34 35c-2 2-4 2-7 0l-25-26c-2-2-2-6 0-6z m-24-17l-106-107c0 0 0-2-2-2l-13-41c-2-4 2-6 6-6l45 8c0 0 2 0 2 2l107 107c2 2 2 7 0 7l-32 32c0 2-4 2-7 0z"/>
      <glyph glyph-name="contacts" unicode="&#41;"
             d="M448 506l-346 0c-32 0-57-26-57-58l0-75c0-8 6-17 17-17 11 0 17 7 17 17l0 75c0 15 11 26 26 26l343 0c15 0 26-11 26-26l0-384c0-15-11-26-26-26l-346 0c-15 0-25 11-25 26l0 55c0 9-7 18-17 18-11 0-15-9-15-18l0-55c0-32 25-58 57-58l346 0c32 0 58 26 58 58l0 384c2 32-26 58-58 58z m-427-207l98 0c9 0 15 6 15 15 0 8-6 17-15 17l-98 0c-8 0-17-7-17-17 0-11 9-15 17-15z m0-69l98 0c9 0 18 7 18 17 0 11-9 15-18 15l-98 0c-8 0-17-6-17-17 0-10 9-15 17-15z m113-53c0 9-6 17-17 17l-96 0c-8 0-17-6-17-17 0-11 7-17 17-17l98 0c9 2 15 9 15 17z m235 137c0 38-32 70-70 70-39 0-71-32-71-70 0-39 32-71 71-71 38 0 70 32 70 71z m-107 0c0 21 17 38 39 38 21 0 38-17 38-38 0-22-19-37-38-37-19 0-39 17-39 37z m-66-175c0-9 7-17 17-17 11 0 17 6 17 17 0 34 28 62 62 62l19 0c35 0 62-28 62-62 0-9 7-17 17-17 11 0 17 6 17 17 0 51-42 94-93 94l-20 0c-55 0-98-43-98-94z"/>
      <glyph glyph-name="copy" unicode="&#42;"
             d="M467 384c0 2-2 4-4 4l-113 113c-2 2-7 5-11 5l-160 0c-8 0-15-7-15-15l0-62-62 0c-10 0-17-7-17-17l0-386c0-9 7-17 17-17l273 0c9 0 18 6 18 17l0 61 61 0c9 0 17 7 17 18l0 273c-2 2-2 4-4 6z m-111 68l60-59-60 0z m2-409l-241 0 0 354 47 0 0-292c0-9 7-18 17-18l180 0 0-44z m-162 76l0 355 128 0 0-96c0-9 7-17 17-17l98 0 0-242z m192 199l-145 0c-8 0-17-7-17-17 0-11 7-17 17-17l145 0c9 0 17 6 17 17 0 10-8 17-17 17z m0-60l-145 0c-8 0-17-6-17-17 0-8 7-15 17-15l145 0c9 0 17 7 17 15 0 11-8 17-17 17z m0-57l-145 0c-8 0-17-7-17-18 0-10 7-17 17-17l145 0c9 0 17 7 17 17 0 11-8 18-17 18z"/>
      <glyph glyph-name="crm" unicode="&#43;"
             d="M446 173l0 83c0 9-7 17-17 17l-158 0 0 66c34 7 58 36 58 73 0 40-35 74-75 74-41 0-75-34-75-74 0-37 26-64 58-73l0-66-156 0c-8 0-17-6-17-17l0-83c-34-7-58-36-58-73 0-40 35-74 75-74 41 0 75 34 75 74 0 37-26 64-58 73l0 66 318 0 0-66c-34-7-58-36-58-73 0-40 35-74 75-74 41 0 75 34 75 74-2 37-28 66-62 73z m-233 239c0 23 20 42 43 42 23 0 43-19 43-42 0-24-20-43-43-43-23 0-43 19-43 43z m-89-312c0-23-19-42-43-42-23 0-43 19-43 42 0 24 20 43 43 43 24 0 43-19 43-43z m307-42c-24 0-43 19-43 42 0 24 19 43 43 43 23 0 43-19 43-43 0-23-20-42-43-42z"/>
      <glyph glyph-name="crypto" unicode="&#44;"
             d="M405 326l0 5c0 44-30 74-79 74l-70 0 0 96c0 7-4 11-11 11-6 0-10-4-10-11l0-96-64 0 0 96c0 7-5 11-11 11-6 0-11-4-11-11l0-96-25 0c-7 0-11-4-11-10 0-7 4-11 11-11l25 0 0-107-32 0c-6 0-10-4-10-10 0-7 4-11 10-11l32 0 0-107-32 0c-6 0-10-4-10-10 0-7 4-11 10-11l32 0 0-117c0-7 5-11 11-11 6 0 11 4 11 11l0 117 64 0 0-117c0-7 4-11 10-11 7 0 11 4 11 11l0 117 60 0c42 0 89 23 89 70l0 5c0 30-15 53-38 66 21 10 38 30 38 57z m-21-121l0-4c0-37-34-52-68-52l-145 0 0 107 145 0c6 0 13 0 19 2 30-4 49-21 49-53z m0 124c0-37-34-52-68-52l-145 0 0 107 155 0c37 0 58-19 58-55z"/>
      <glyph glyph-name="culture-calendar" unicode="&#45;"
             d="M469 277c0 32-8 62-21 90 4 8 9 17 9 28 0 32-26 59-60 59-11 0-19-2-28-8-28 15-60 23-92 23-85 0-158-55-181-132-30-4-53-28-53-60 0-32 23-55 53-57 19-58 64-105 124-124 2-30 27-53 57-53 30 0 56 23 58 53 79 26 134 98 134 181z m-138-151c-9 21-30 34-54 34-23 0-44-15-53-34-47 17-83 53-98 98 21 9 34 30 34 53 0 24-13 45-34 54 21 62 81 108 151 108 24 0 47-6 66-14-4-9-8-20-8-30 0-32 26-60 60-60 10 0 21 2 30 8 8-21 14-42 14-66 0-70-44-130-108-151z"/>
      <glyph glyph-name="custom-view" unicode="&#46;"
             d="M480 258c-4 0-9 2-13 7-6 8-13 14-19 23-6 6-6 17 0 23 6 7 17 7 23 0 9-8 15-17 22-25 6-7 4-17-2-24-5-4-7-4-11-4z m-70 66c-3 0-7 0-9 2-17 13-36 22-53 30-9 5-13 13-9 22 4 8 13 12 22 8 21-8 40-19 59-32 7-4 9-15 5-21-5-7-11-9-15-9z m-308 0c-4 0-10 2-12 7-5 6-3 17 4 21 19 15 40 26 60 32 8 4 17 0 21-9 4-8 0-17-9-21-19-6-36-17-55-28-2-2-4-2-9-2z m186 47c-21 2-43 2-64 0-6-2-15 4-17 13 0 9 6 17 15 19 23 2 47 2 68 0 9-2 15-10 15-19-2-9-8-13-17-13z m-256-113c-4 0-6 2-11 4-6 7-8 15-2 24 7 8 15 17 22 25 6 7 17 7 23 0 6-6 6-17 0-23-6-6-13-15-21-23-2-7-7-7-11-7z m21-60c-4 0-8 3-10 5-9 8-15 17-22 25-6 7-6 17 0 24 7 4 17 4 24-2 6-9 13-15 21-24 7-6 7-17 0-23-4-2-8-5-13-5z m203-91c-11 0-23 0-34 2-9 2-15 10-15 19 0 9 8 15 17 13 19-2 41-2 62 0 8 0 17-4 17-13 2-9-4-17-13-17-11-2-23-4-34-4z m96 19c-6 0-13 4-15 11-4 8 0 17 9 21 19 6 36 17 53 30 6 4 17 2 21-5 5-6 2-17-4-21-19-13-41-23-60-32 0-4-2-4-4-4z m-192 0c-2 0-4 0-6 2-22 9-41 19-60 32-7 4-9 15-4 21 4 7 15 9 21 5 17-13 36-22 53-30 9-5 13-13 9-22 0-4-7-8-13-8z m299 72c-5 0-9 3-11 5-6 6-6 17 0 23 6 7 13 15 21 24 7 6 15 8 24 2 6-7 8-15 2-24-6-8-15-17-21-25-7-2-11-5-15-5z m-203-21c-43 0-79 36-79 79 0 43 36 79 79 79 43 0 79-36 79-79 0-43-36-79-79-79z m0 126c-26 0-47-21-47-47 0-26 21-47 47-47 26 0 47 21 47 47 0 26-21 47-47 47z"/>
      <glyph glyph-name="dasbhoard" unicode="&#47;"
             d="M256 429c-139 0-250-113-252-252 0-11 9-17 17-17l111 0c11 0 17 6 17 17 0 11-8 17-17 17l-94 0c9 113 103 203 218 203 115 0 209-90 218-201l-77 0c-11 0-17-6-17-17 0-10 8-17 17-17l94 0c8 0 17 9 17 15 0 139-113 252-252 252z m49-201l-100 88c-7 4-13 4-19 2-7-4-9-11-9-17 6-49 15-126 15-130 0-9 2-20 9-28l0-2c10-24 36-41 64-41 38 0 70 32 70 71 0 17-6 34-17 47-4 4-9 8-13 10z m-40-96c-15 0-30 9-37 24-2 4-4 10-4 15 0 2 0 4-11 94l71-60c0-2 2-2 2-2 2-2 4-5 6-7 5-4 11-13 11-25 0-22-17-39-38-39z"/>
      <glyph glyph-name="data-display" unicode="&#58;"
             d="M448 506l-384 0c-32 0-58-26-58-58l0-250c0-32 26-57 58-57l384 0c32 0 58 25 58 57l0 250c2 32-26 58-58 58z m28-305c0-15-11-26-26-26l-386 0c-15 0-26 11-26 26l0 247c0 15 11 26 26 26l384 0c15 0 26-11 26-26l0-247z m-103-165l-102 0 0 73c0 8-6 17-17 17-11 0-17-7-17-17l0-73-98 0c-9 0-17-6-17-17 0-10 6-17 17-17l234 0c9 0 17 7 17 17 0 11-8 17-17 17z m-215 299c-15 0-30-15-30-30l0-60c0-17 13-30 30-30 17 0 30 13 30 30l0 60c0 15-13 30-30 30z m98 38c-17 0-30-12-30-30l0-98c0-17 13-30 30-30 17 0 30 13 30 30l0 98c0 18-13 30-30 30z m98 58c-17 0-30-13-30-30l0-156c0-17 13-30 30-30 17 0 30 13 30 30l0 158c0 15-15 28-30 28z"/>
      <glyph glyph-name="data-entry" unicode="&#59;"
             d="M448 437l-384 0c-32 0-58-25-58-57l0-250c0-32 26-57 58-57l384 0c32 0 58 25 58 57l0 250c2 32-26 57-58 57z m28-305c0-15-11-25-26-25l-386 0c-15 0-26 10-26 25l0 248c0 15 11 25 26 25l384 0c15 0 26-10 26-25l0-248z m-371 173l29 0c3 0 5 2 5 4l0 30c0 2-2 4-5 4l-29 0c-3 0-5-2-5-4l0-30c0-2 2-4 5-4z m68 0l30 0c2 0 4 2 4 4l0 30c0 2-2 4-4 4l-30 0c-2 0-4-2-4-4l0-30c0-2 2-4 4-4z m68 0l30 0c2 0 4 2 4 4l0 30c0 2-2 4-4 4l-30 0c-2 0-4-2-4-4l0-30c0-2 2-4 4-4z m68 0l30 0c2 0 4 2 4 4l0 30c0 2-2 4-4 4l-30 0c-2 0-4-2-4-4l0-30c0-2 2-4 4-4z m98 38l-29 0c-3 0-5-2-5-4l0-30c0-2 2-4 5-4l29 0c3 0 5 2 5 4l0 30c0 2-2 4-5 4z m-273-136l-29 0c-3 0-5-2-5-4l0-30c0-2 2-4 5-4l29 0c3 0 5 2 5 4l0 30c0 2-2 4-5 4z m273 0l-29 0c-3 0-5-2-5-4l0-30c0-2 2-4 5-4l29 0c3 0 5 2 5 4l0 30c0 2-2 4-5 4z m-279 72l0-29c0-3 2-5 4-5l30 0c2 0 4 2 4 5l0 29c0 3-2 5-4 5l-28 0c-4 2-6 0-6-5z m70 0l0-29c0-3 3-5 5-5l30 0c2 0 4 2 4 5l0 29c0 3-2 5-4 5l-30 0c-2 2-5 0-5-5z m69 0l0-29c0-3 2-5 4-5l30 0c2 0 4 2 4 5l0 29c0 3-2 5-4 5l-30 0c-2 2-4 0-4-5z m106 0c0 3-2 5-4 5l-30 0c-2 0-4-2-4-5l0-29c0-3 2-5 4-5l30 0c2 0 4 2 4 5z m-38-72l-158 0c-11 0-19-9-19-19 0-11 8-19 19-19l156 0c10 0 19 8 19 19 0 10-6 19-17 19z"/>
      <glyph glyph-name="datepicker" unicode="&#60;"
             d="M427 474l-26 0 0 29-49 0 0-29-194 0 0 29-49 0 0-29-24 0c-34 0-64-28-64-64l0-337c0-35 28-64 64-64l342 0c34 0 64 27 64 64l0 337c0 34-28 64-64 64z m0-436l-342 0c-19 0-34 15-34 35l0 262 410 0 0-262c0-20-15-35-34-35z m-342 239l49 0 0-49-49 0z m98 0l50 0 0-49-50 0z m96 0l50 0 0-49-50 0z m99 0l49 0 0-49-49 0z m-293-121l49 0 0-49-49 0z m98 0l50 0 0-49-50 0z m96 0l50 0 0-49-50 0z m99 0l49 0 0-49-49 0z"/>
      <glyph glyph-name="default-timeline" unicode="&#61;"
             d="M452 335c-21 0-38-17-38-38 0-7 2-11 2-15l-62-62-83 98c2 6 4 11 4 17 0 21-17 38-38 38-22 0-39-17-39-38 0-4 0-9 3-13l-124-109c-4 2-11 5-17 5-22 0-39-17-39-39 0-21 17-38 39-38 21 0 38 17 38 38 0 4 0 9-2 13l122 109c4-2 10-4 17-4 4 0 8 0 12 2l94-109c2-2 7-4 11-4 4 0 9 2 11 4l72 72c4-2 11-2 15-2 21 0 39 17 39 39 2 17-15 36-37 36z"/>
      <glyph glyph-name="diamond" unicode="&#62;"
             d="M448 303c0 4-2 6-4 8l-75 67c-2 2-4 2-6 2l-214 0c-2 0-4 0-6 0l-75-66c-2-3-4-7-4-9 0-4 0-6 2-8l53-64c5-7 11-7 15-3 7 5 7 11 3 15l-41 47 96 0 49-185-49 64c-4 4-11 6-15 2-4-2-6-11-2-15l81-111c2-2 2-2 4-4 2 0 2 0 5 0 2 0 2 0 4 2 2 0 4 2 4 2l173 247c0 3 2 5 2 9z m-301 49l30-38-72 0z m130 6l77 0-36-44z m11-44l-62 0 30 34z m-87 2l-32 42 68 0z m100-24l-39-192-51 192z m21-2c2 0 2 2 4 2l92 0-132-190z m21 24l28 34 39-34z m-177-116c0-5-4-10-10-10-6 0-11 5-11 10 0 6 5 11 11 11 6 0 10-5 10-11z m101 205c6 0 10 4 10 11l0 45c0 6-4 10-10 10-7 0-11-4-11-10l0-45c0-7 4-11 11-11z m-141 9c2-2 4-2 6-2 2 0 7 0 7 2 4 4 4 10 0 15l-30 32c-4 4-11 4-15 0-4-5-4-11 0-15z m254-2c2 0 4 0 6 4l30 32c4 4 4 11 0 15-4 4-11 4-15 0l-30-32c-4-4-4-11 0-15 2-2 7-4 9-4z"/>
      <glyph glyph-name="divider" unicode="&#63;"
             d="M491 239l-470 0c-8 0-17 6-17 17 0 11 7 17 17 17l470 0c8 0 17-6 17-17 0-11-9-17-17-17z"/>
      <glyph glyph-name="donut" unicode="&#64;"
             d="M478 288c-17 109-109 192-222 192-124 0-224-100-224-224 0-77 38-149 105-190 2-2 6-2 8 0 2 0 6 4 6 7 9 21 28 34 50 34 29 0 53-24 53-54 0-6 4-10 11-10 6 0 10 4 10 10 0 30 24 54 54 54 19 0 36-11 44-26 2-2 5-4 7-4 2 0 6 0 8 2 56 43 96 102 90 209z m-425-32c0 111 92 203 203 203 100 0 183-73 201-169-11-17-24-32-41-43-19-12-45-14-77-10 2 6 2 13 2 21 0 47-38 85-85 85-47 0-85-38-85-85 0-2 0-2 0-4l-2 0c-43-13-73-45-99-77-10 26-17 51-17 79z m267 0c0-36-28-64-64-64-36 0-64 28-64 64 0 36 28 64 64 64 36 0 64-28 64-64z m139 2c0-62-26-117-71-156-15 17-34 26-57 26-28 0-52-15-64-36-13 21-37 36-64 36-26 0-52-15-64-36-24 17-43 38-58 64 26 32 56 66 94 77 11-35 43-62 81-62 32 0 60 17 75 44 10-2 21-2 30-2 25 0 46 7 66 17 12 9 23 20 32 28 0 2 0 0 0 0z m-64 19c6 0 10 5 10 11l0 21c0 7-4 11-10 11-7 0-11-4-11-11l0-21c0-6 4-11 11-11z m-288-32l0 22c0 6-5 10-11 10-6 0-11-4-11-10l0-22c0-6 5-10 11-10 6 0 11 4 11 10z m2 77c2 0 6 0 8 2l15 17c5 5 5 11 0 15-4 5-10 5-15 0l-15-15c-4-4-4-10 0-15 3-2 5-4 7-4z m64 64c2 0 6 0 8 2l15 17c5 5 5 11 0 15-4 5-10 5-15 0l-15-15c-4-4-4-10 0-15 3-2 5-4 7-4z m158-23l21 0c6 0 11 4 11 10 0 7-5 11-11 11l-21 0c-7 0-11-4-11-11 0-6 4-10 11-10z m-64 42l21 0c6 0 11 5 11 11 0 6-5 11-11 11l-21 0c-7 0-11-5-11-11 0-6 4-11 11-11z m-118-117c0-6-4-11-10-11-6 0-11 5-11 11 0 6 5 11 11 11 6 0 10-5 10-11z m128 85c0-6-4-10-10-10-6 0-11 4-11 10 0 6 5 11 11 11 6 0 10-5 10-11z m-85-21c0-6-5-11-11-11-6 0-10 5-10 11 0 6 4 11 10 11 6 0 11-5 11-11z m213 0c0-6-4-11-10-11-6 0-11 5-11 11 0 6 5 11 11 11 6 0 10-5 10-11z m-42-43c0-6-5-10-11-10-6 0-11 4-11 10 0 6 5 11 11 11 6 0 11-5 11-11z"/>
      <glyph glyph-name="down" unicode="&#91;"
             d="M508 115l-154 34 43 47-100 92-94-75c-7-4-15-4-22 0l-170 145c-7 3-7 13-2 20 4 4 8 6 12 6 5 0 7-2 11-4l160-137 94 77c6 4 15 4 21 0l111-100 43 47z"/>
      <glyph glyph-name="draft" unicode="&#93;"
             d="M476 314l-194 162c-15 13-37 13-54 0l-194-162c-8-9-13-20-13-30l0-218c0-21 17-38 39-38l390 0c21 0 39 17 39 38l0 216c2 12-3 23-13 32z m-220-188l-177 156 177 136 177-136z"/>
      <glyph glyph-name="drag-and-drop" unicode="&#94;"
             d="M476 175c-9 0-15-6-15-15l0-34-34 0c-9 0-15-7-15-15 0-9 6-15 15-15l47 0c8 0 15 6 15 15l0 47c2 11-5 17-13 17z m-137-49l-89 0c-9 0-15-7-15-15 0-9 6-15 15-15l89 0c9 0 15 6 15 15 0 8-6 15-15 15z m-226-28l47 0c9 0 15 7 15 15 0 9-6 15-15 15l-34 0 0 34c0 9-7 15-15 15-9 0-15-6-15-15l0-47c2-10 9-17 17-17z m0 137c9 0 15 6 15 15l0 89c0 9-6 15-15 15-8 0-15-6-15-15l0-89c0-9 7-15 15-15z m0 179c9 0 15 6 15 15l0 34 34 0c9 0 15 6 15 15 0 8-8 13-17 13l-47 0c-8 0-15-7-15-15l0-47c0-9 7-15 15-15z m137 49l89 0c9 0 15 6 15 15 0 8-6 13-15 13l-89 0c-9 0-15-7-15-15 0-9 6-13 15-13z m226 28l-47 0c-9 0-15-7-15-15 0-9 6-15 15-15l34 0 0-34c0-9 6-15 15-15 8 0 13 8 13 17l0 47c0 8-7 15-15 15z m0-137c-9 0-15-6-15-15l0-89c0-9 6-15 15-15 8 0 15 6 15 15l0 89c0 9-7 15-15 15z m-135-17l-76 0c-9 0-15-6-15-15 0-8 6-15 15-15l40 0-102-85-167 0c-8 0-15-7-15-15l0-173c0-6 7-13 15-13l173 0c9 0 15 7 15 15l0 167 105 87 0-43c0-8 6-14 14-14 9 0 15 6 15 14l0 75c-2 9-8 15-17 15z m-147-288l-145 0 0 143 143 0 0-143z"/>
      <glyph glyph-name="dropdown" unicode="&#95;"
             d="M47 373c-28 0-34-15-15-34l190-185c19-20 51-20 70 0l190 185c19 19 13 34-15 34z"/>
      <glyph glyph-name="edit" unicode="&#96;"
             d="M350 416l72-73c7-6 15-6 22 0l51 52c6 6 6 15 0 21l-73 73c-6 6-15 6-21 0l-51-52c-7-6-7-15 0-21z m-307-290l-28-90c-2-10 6-21 17-19l100 19c2 0 7 2 9 5l260 262c6 6 6 15 0 21l-72 73c-7 6-15 6-22 0l-260-265c-2-2-4-4-4-6z"/>
      <glyph glyph-name="editor" unicode="&#123;"
             d="M427 354c0 2 0 4-2 7 0 2-3 4-5 4l-136 136c-2 2-7 5-11 5l-194 0c-9 0-15-7-15-15l0-470c0-8 6-17 17-17l333 0c8 0 17 7 17 17l0 333c-4 0-4 0-4 0z m-137 100l83-83-83 0z m-194-418l0 438 162 0 0-122c0-9 7-17 17-17l122 0 0-301-301 0z m237 235l-175 0c-9 0-17-6-17-17 0-11 6-17 17-17l177 0c8 0 17 6 17 17 0 11-11 17-19 17z m0-58l-175 0c-9 0-17-6-17-17 0-10 6-17 17-17l177 0c8 0 17 7 17 17 0 11-11 17-19 17z m0-59l-175 0c-9 0-17-7-17-17 0-11 6-18 17-18l177 0c8 0 17 7 17 18 0 10-11 17-19 17z"/>
      <glyph glyph-name="ellipse-h" unicode="&#124;"
             d="M141 256c0-33-27-60-60-60-33 0-60 27-60 60 0 33 27 60 60 60 33 0 60-27 60-60z m175 0c0-33-27-60-60-60-33 0-60 27-60 60 0 33 27 60 60 60 33 0 60-27 60-60z m177 0c0-33-27-60-60-60-33 0-60 27-60 60 0 33 27 60 60 60 33 0 60-27 60-60z"/>
      <glyph glyph-name="ellipse-v" unicode="&#125;"
             d="M316 79c0-33-27-60-60-60-33 0-60 27-60 60 0 33 27 60 60 60 33 0 60-27 60-60z m0 177c0-33-27-60-60-60-33 0-60 27-60 60 0 33 27 60 60 60 33 0 60-27 60-60z m0 175c0-33-27-60-60-60-33 0-60 27-60 60 0 33 27 60 60 60 33 0 60-27 60-60z"/>
      <glyph glyph-name="email" unicode="&#126;"
             d="M452 448l-392 0c-30 0-54-26-54-55l0-274c0-29 26-55 56-55l390 0c30 0 56 26 56 55l0 274c0 29-26 55-56 55z m24-329c0-12-11-23-24-23l-392 0c-13 0-24 11-24 23l0 274c0 12 11 23 24 23l390 0c13 0 24-11 24-23l0-274z m-73 248l-147-120-147 120c-7 4-17 4-22-2-6-9-4-17 3-24l155-128c2-2 7-4 11-4 4 0 6 2 11 4l155 128c7 7 9 15 3 24-5 6-15 6-22 2z"/>
      <glyph glyph-name="error" unicode="&#92;"
             d="M495 81l-216 376c-12 21-34 21-46 0l-216-376c-13-21-2-40 24-40l433 0c25 0 36 17 21 40z m-260 307c0 9 6 17 17 17 10 0 17-6 17-17l0-207c0-8-7-17-17-17-11 0-17 9-17 17z m15-305c-15 0-26 13-26 26 0 15 13 25 26 25 15 0 25-12 25-25 2-15-10-26-25-26z"/>
      <glyph glyph-name="error-404" unicode="&#57344;"
             d="M141 401c0-12-10-21-22-21-11 0-21 9-21 21 0 12 10 21 21 21 12 0 22-9 22-21z m64 0c0-12-10-21-22-21-11 0-21 9-21 21 0 12 10 21 21 21 12 0 22-9 22-21z m62 0c0-12-10-21-22-21-11 0-21 9-21 21 0 12 10 21 21 21 12 0 22-9 22-21z m166 79l-354 0c-32 0-58-26-58-58l0-332c0-32 26-58 58-58l354 0c32 0 58 26 58 58l0 332c0 32-26 58-58 58z m-354-32l354 0c15 0 26-11 26-26l0-68-406 0 0 68c0 15 11 26 26 26z m354-384l-354 0c-15 0-26 11-26 26l0 234 408 0 0-234c-2-15-13-26-28-26z m-243 117l-9 0 0 73c0 4-2 6-4 8-2 3-4 3-8 3-3 0-5 0-7-3-2 0-4-2-4-4l-51-77c-2-2-2-4-2-8 0-2 0-4 2-7 2-2 4-2 6-2l47 0 0-15c0-4 0-6 2-8 2-2 4-2 9-2 4 0 6 0 8 2 2 2 2 4 2 8l0 13 9 0c6 0 11 2 11 9 0 2 0 4-3 6-2 4-4 4-8 4z m-30 0l-34 0 32 47 0-47z m243 0l-8 0 0 73c0 4-2 6-5 8-2 3-4 3-8 3-2 0-4 0-7-3-2 0-4-2-4-4l-53-77c-2-2-2-4-2-8 0-2 0-4 2-7 2-2 4-2 6-2l47 0 0-15c0-4 0-6 2-8 2-2 5-2 9-2 4 0 6 0 8 2 3 2 3 4 3 8l0 13 8 0c6 0 11 2 11 9 0 2 0 4-2 6 0 4-3 4-7 4z m-32 0l-32 0 32 47z m-109 84c-15 0-25-7-34-18-8-10-10-25-10-46 0-22 4-37 10-47 9-11 19-17 34-17 15 0 26 6 35 17 8 10 10 25 10 47 0 21-4 36-10 46-9 11-20 18-35 18z m17-99c-4-6-8-10-17-10-8 0-12 4-17 10-4 7-6 20-6 35 0 14 2 27 6 34 5 6 9 10 17 10 9 0 13-4 17-10 5-7 7-20 7-34-2-15-2-28-7-35z"/>
      <glyph glyph-name="error-500" unicode="&#57345;"
             d="M147 393c0-11-8-20-19-20-11 0-19 9-19 20 0 10 8 19 19 19 11 0 19-9 19-19z m60 0c0-11-9-20-19-20-11 0-19 9-19 20 0 10 8 19 19 19 10 0 19-9 19-19z m58 0c0-11-9-20-20-20-10 0-19 9-19 20 0 10 9 19 19 19 11 0 20-9 20-19z m157 74l-332 0c-30 0-54-23-54-53l0-314c0-30 24-53 54-53l332 0c30 0 54 23 54 53l0 312c0 30-24 55-54 55z m-332-30l332 0c13 0 24-10 24-23l0-64-380 0 0 64c0 13 11 23 24 23z m332-362l-332 0c-13 0-24 10-24 23l0 222 382 0 0-220c-2-15-13-25-26-25z m-239 140c-6 3-12 5-19 5-8 0-15-2-21-7l0 32 45 0c6 0 10 2 10 9 0 6-4 8-10 8l-56 0c-2 0-6 0-6-2-2-2-2-4-2-6l0-51c0-2 0-5 2-5 2-2 4-2 6-2 2 0 5 0 7 2 4 3 6 5 10 7 5 2 7 2 11 2 6 0 13-2 17-6 4-5 6-9 6-15 0-7-2-13-6-15-4-5-8-7-17-7-4 0-9 0-13 2-4 3-8 5-13 7-2 0-2 2-4 2 0 0-2 0-2 0-2 0-4 0-4-2-2-2-2-4-2-7 0-2 2-6 4-8 4-4 11-7 17-9 6-2 13-4 19-4 9 0 15 2 21 4 7 5 11 9 15 13 5 7 5 13 5 19 0 7-2 13-5 20-6 8-10 12-15 14z m73 50c-13 0-23-5-32-15-6-11-11-26-11-45 0-19 5-34 11-45 6-11 17-15 32-15 15 0 23 4 32 15 6 11 11 26 11 45 0 19-5 34-11 45-9 8-19 15-32 15z m17-92c-4-7-8-11-17-11-9 0-13 4-17 11-4 6-4 17-4 32 0 15 2 25 4 32 4 6 8 10 17 10 9 0 13-4 17-10 4-7 4-17 4-32 0-15-2-26-4-32z m81 92c-13 0-23-5-32-15-6-11-11-26-11-45 0-19 5-34 11-45 7-11 17-15 32-15 13 0 24 4 32 15 7 11 11 26 11 45 0 19-4 34-11 45-8 8-17 15-32 15z m17-92c-4-7-8-11-17-11-8 0-13 4-17 11-4 6-4 17-4 32 0 15 2 25 4 32 4 6 9 10 17 10 9 0 13-4 17-10 4-7 4-17 4-32 0-15-2-26-4-32z"/>
      <glyph glyph-name="etherium" unicode="&#57346;"
             d="M452 250c-6 0-10-5-13-11-14-85-89-149-177-149-98 0-179 81-179 179 0 98 81 179 179 179 62 0 122-34 154-90 4-6 11-8 17-4 6 4 9 11 4 17-36 62-102 100-175 100-111 0-202-91-202-204 0-113 91-205 202-205 101 0 184 72 201 175 0 6-4 10-11 13z m5 49c0-6-5-11-11-11-6 0-11 5-11 11 0 6 5 10 11 10 6 0 11-4 11-10z m-201 74c-2 0-6-2-9-4l-83-107c-2-4-2-8 0-12l83-107c3-2 5-4 9-4 4 0 6 2 9 4l85 107c2 4 2 8 0 12l-85 107c-3 2-5 4-9 4z m0-27l60-75-58-17-60 17z m0-180l-68 88 68-19 2 0c0 0 2 0 4 0l64 19z"/>
      <glyph glyph-name="exclamation" unicode="&#57347;"
             d="M256 4c-139 0-250 113-250 252 0 139 111 250 250 250 139 0 252-113 252-252 0-137-113-250-252-250z m0 470c-122 0-218-96-218-218 0-122 99-220 220-220 122 0 220 98 220 220-2 122-100 218-222 218z m4-282c-8 0-17 6-17 17l0 190c0 8 7 17 17 17 11 0 17-9 17-17l0-190c0-8-8-17-17-17z m24-49c0-13-11-24-24-24-13 0-23 11-23 24 0 13 10 23 23 23 13 0 24-10 24-23z"/>
      <glyph glyph-name="expand" unicode="&#57348;"
             d="M215 418l24 24 0-103c11 2 21 2 32 0l0 103 23-24c3-2 7-4 11-4 4 0 9 2 11 4 6 7 6 17 0 24l-51 51c-7 6-18 6-24 0l-49-54c-6-6-6-14 0-21 6-6 17-6 23 0z m-145-179l103 0c-2 11-2 21 0 32l-103 0 24 23c6 7 6 17 0 24-7 6-15 8-21 2l-52-51c-6-7-6-17 0-24l52-53c2-2 6-4 10-4 4 0 9 2 11 4 6 6 6 17 0 23z m227-145l-24-26 0 103c-11-2-21-2-32 0l0-103-23 26c-7 6-17 6-24 0-6-7-6-17 0-24l51-51c2-2 7-4 11-4 4 0 9 2 11 4l51 51c6 7 6 17 0 24-7 6-15 6-21 0z m196 173l-54 53c-6 6-17 6-23 0-6-6-6-17 0-23l26-24-103 0c2-11 2-21 0-32l103 0-26-23c-6-7-6-17 0-24 2-2 6-4 11-4 4 0 8 2 10 4l52 51c2 2 4 7 4 11 4 4 2 9 0 11z"/>
      <glyph glyph-name="extensions" unicode="&#57349;"
             d="M448 277l-21 0 0 86c0 23-20 42-43 42l-107 0 0 22c0 23-19 42-42 42-24 0-43-19-43-42l0-22-128 0c-23 0-43-19-43-42l0-86 22 0c23 0 42-19 42-42 0-24-19-43-42-43l-22 0 0-85c0-24 20-43 43-43l128 0 0 21c0 24 19 43 43 43 23 0 42-19 42-43l0-21 107 0c23 0 43 19 43 43l0 85 21 0c23 0 43 19 43 43 0 23-20 42-43 42z"/>
      <glyph glyph-name="extra-components" unicode="&#57350;"
             d="M341 143l0 58-59 0c-3 10-7 19-13 29l42 43-40 41-43-43c-8 6-19 8-30 13l0 57-55 0 0-59c-11-3-19-7-30-13l-43 42-40-40 43-43c-7-8-9-19-13-30l-60 0 0-57 60 0c2-11 6-19 13-30l-43-43 40-40 43 42c9-6 19-8 30-12l0-58 58 0 0 60c10 2 19 6 29 13l43-43 41 40-43 43c6 9 8 19 13 30z m-170-30c-32 0-58 26-58 58 0 32 26 57 58 57 32 0 57-25 57-57 0-32-25-58-57-58z m341 262l0 39-43 0c-2 6-4 15-8 19l30 30-28 28-30-30c-4 4-11 8-19 8l0 43-39 0 0-43c-6-2-14-4-19-8l-30 30-27-28 30-30c-5-4-9-11-9-19l-43 0 0-39 43 0c2-6 4-14 9-19l-30-30 27-27 30 30c5-5 11-9 19-9l0-43 39 0 0 43c6 2 15 4 19 9l30-30 28 27-30 30c4 5 8 11 8 19z m-117-19c-22 0-39 17-39 39 0 21 17 38 39 38 21 0 38-17 38-38 0-22-17-39-38-39z"/>
      <glyph glyph-name="eye" unicode="&#57351;"
             d="M256 154c-92 0-182 38-248 105l-8 10 8 10c66 67 156 105 248 105 92 0 182-38 248-105l8-10-8-10c-66-67-156-105-248-105z m-220 115c61-57 138-90 220-90 82 0 159 31 220 90-61 59-138 89-220 89-82 0-159-30-220-89z m210-64c-36 0-64 28-64 64 0 36 28 64 64 64 33 0 61-28 61-64 0-36-28-64-61-64z m0 102c-21 0-39-18-39-38 0-21 18-39 39-39 20 0 38 18 38 39 0 20-18 38-38 38z"/>
      <glyph glyph-name="facebook" unicode="&#57352;"
             d="M169 318l38 0 0 36c0 17 0 41 13 56 10 17 27 27 57 27 47 0 69-6 69-6l-9-56c0 0-15 5-30 5-15 0-28-5-28-19l0-43 60 0-4-53-58 0 0-188-70 0 0 188-38 0z"/>
      <glyph glyph-name="family" unicode="&#57353;"
             d="M264 461l0 18c0 5-3 7-8 7-5 0-8-2-8-7l0-21c-107-2-202-66-245-161-6-8 5-18 12-13 34 18 75 10 98-20 2-8 10-8 15 0 28 41 87 41 118 2 0 0 0-2 2-2 5-5 13-5 16 0 28 41 89 41 120 0 5-5 13-5 15 0 23 30 64 41 98 20 7-5 18 3 15 13-44 95-138 161-248 164z m-146-182c-26 26-64 36-98 23 39 69 105 120 182 136-43-34-71-103-84-159z m130 5c-30 28-79 31-112 5 15 57 53 146 112 154z m16 0l0 159c59-8 97-95 112-154-33 26-82 26-112-5z m133-5c-16 54-41 123-85 159 77-16 144-67 182-136-36 13-74 3-97-23z m-310-131c21 0 38 18 38 39 0 20-17 38-38 38-20 0-38-18-38-38 0-21 15-39 38-39z m0 64c13 0 23-10 23-23 0-12-10-23-23-23-13 0-23 11-23 23 0 13 8 23 23 23z m154-25c0 20-18 38-39 38-20 0-38-18-38-38 0-21 18-39 38-39 21 0 39 18 39 39z m-62 2c0 13 10 23 23 23 13 0 23-10 23-23 0-12-10-23-23-23-13 0-23 11-23 23z m141-41c20 0 38 18 38 39 0 20-18 38-38 38-20 0-38-18-38-38 0-21 15-39 38-39z m0 64c13 0 23-10 23-23 0-12-10-23-23-23-13 0-23 11-23 23 0 13 8 23 23 23z m115-64c21 0 39 18 39 39 0 20-18 38-39 38-20 0-38-18-38-38 0-21 18-39 38-39z m0 64c13 0 23-10 23-23 0-12-10-23-23-23-13 0-23 11-23 23 0 13 10 23 23 23z m59-161c-5 0-8-2-8-7l0-29c0 0 0-2-2-2l-100 0c0 0-3 0-3 2l0 75c0 12 8 23 21 28l20-28c6-6 13-6 18 0l21 28c13-5 20-16 20-28l0-13c0-5 3-8 8-8 5 0 8 3 8 8l0 13c5 23-11 38-34 43-10 3-23 3-41 3-5 0-12 0-15-3-13-2-23-10-31-20-7 10-18 18-30 20-6 0-11 3-16 3-23 0-33 0-41-3-13-2-23-10-30-20-8 10-18 18-31 20-10 3-16 3-41 3-18 0-36-8-46-23-10 12-26 23-46 23-26 0-31 0-41-3-21-5-39-23-39-43l0-75c0-10 8-15 16-15l100 0c2 0 5 0 10 3 5-3 10-3 13-3l99 0c3 0 6 0 11 3 2-3 5-3 10-3l31 0c5 0 7 3 7 8 0 5-2 7-7 7l-31 0c0 0-3 0-3 3l0 74c0 13 8 23 21 28l20-28c5-5 13-5 18 0l21 28c13-5 20-15 20-28l0-74c0 0 0-3-2-3l-31 0c-5 0-8-2-8-7 0-5 3-8 8-8l31 0c2 0 5 0 10 3 0-3 5-3 8-3l99 0c11 0 16 8 16 15l0 29c0 5-3 7-8 7z m-46 69l-13-18-13 18z m-348 0l-13-18-13 18z m36-105l-100 0c0 0-3 0-3 3l0 74c0 13 8 23 21 28l23-30c5-6 13-6 18 0l20 28c13-5 21-16 21-26z m79 105l-13-18-13 18z m-61-105c0 0-3 0-3 3l0 74c0 13 8 23 21 28l20-28c5-5 13-5 18 0l20 28c13-5 21-15 21-28l0-77z m166 87l-13 18 26 0z"/>
      <glyph glyph-name="feedback" unicode="&#57354;"
             d="M367 21l-301 0c-28 0-51 24-51 52l0 262c0 28 23 51 51 51l207 0c9 0 15-6 15-15 0-8-6-15-15-15l-207 0c-13 5-23-6-23-21l0-262c0-13 10-24 23-24l301 0c13 0 23 11 23 24l0 206c0 9 7 15 15 15 9 0 15-6 15-15l0-206c0-28-23-52-53-52z m47 429l40-40c3-3 7-3 9 0l30 29c2 3 2 7 0 9l-41 41c-2 2-6 2-8 0l-30-30c-2-2-2-7 0-9z m-167-160l-17-53c-2-4 3-9 7-7l60 11c2 0 2 0 2 2l145 145c2 2 2 7 0 9l-43 42c-2 3-6 3-8 0l-146-145c0-2 0-2 0-4z m-10-119l-132 0c-9 0-15 6-15 15 0 8 6 15 15 15l132 0c8 0 15-7 15-15 0-9-9-15-15-15z m-58 76l-74 0c-9 0-15 7-15 15 0 9 6 15 15 15l74 0c9 0 15-6 15-15 0-8-6-15-15-15z m152-151l-226 0c-9 0-15 6-15 15 0 8 6 15 15 15l226 0c8 0 15-7 15-15 0-9-9-15-15-15z"/>
      <glyph glyph-name="files" unicode="&#57355;"
             d="M280 390l-146 0c-34 0-61-27-61-61l0-244c0-34 27-61 61-61l146 0c35 0 61 27 61 61l0 244c0 34-26 61-61 61z m37-305c0-19-17-36-37-36l-146 0c-19 0-36 17-36 36l0 244c0 20 17 37 36 37l146 0c20 0 37-17 37-37z m85 403l-146 0c-34 0-61-27-61-61 0-8 5-13 12-13 8 0 12 5 12 13 0 19 17 36 37 36l146 0c20 0 37-17 37-36l0-269c0-19-17-36-37-36l-24 0c-7 0-12-5-12-12 0-8 5-12 12-12l24 0c34 0 61 26 61 60l0 269c0 34-27 61-61 61z"/>
      <glyph glyph-name="filter" unicode="&#57356;"
             d="M196 0c-2 0-4 0-6 2-4 2-9 9-9 13l0 226-179 248c-2 4-2 10 0 14 2 5 7 9 13 9l482 0c6 0 11-2 13-9 2-4 2-10 0-14l-177-248 0-145c0-4-2-11-7-13l-119-81c-6-2-9-2-11-2z m-151 482l164-226c2-2 2-6 2-9l0-204 90 59 0 143c0 2 0 7 2 9l164 226-422 0z"/>
      <glyph glyph-name="filter-circle" unicode="&#57357;"
             d="M256 4c-139 0-250 113-250 252 0 139 111 250 250 250 139 0 252-113 252-252 0-137-113-250-252-250z m0 470c-122 0-218-96-218-218 0-122 99-220 220-220 122 0 220 98 220 220-2 122-100 218-222 218z m117-150l-234 0c-9 0-15 9-15 17 0 9 6 17 17 17l234 0c9 0 18-6 18-17 0-10-11-17-20-17z m-42-85l-150 0c-8 0-17 6-17 17 0 11 7 17 17 17l150 0c8 0 17-6 17-17 0-11-9-17-17-17z m-43-85l-64 0c-9 0-17 6-17 17 0 10 6 17 17 17l64 0c9 0 17-7 17-17 0-11-8-17-17-17z"/>
      <glyph glyph-name="folder" unicode="&#57358;"
             d="M286 405l164 0c34 0 62-27 62-62l0-236c0-34-28-62-62-62l-388 0c-34-2-62 25-62 60l0 302c0 35 28 62 62 62l143 0c4 0 10-2 15-6l51-51c4-5 8-7 15-7z"/>
      <glyph glyph-name="folder-o" unicode="&#57359;"
             d="M433 45l-354 0c-41 0-73 32-73 72l0 278c0 40 32 72 73 72l130 0c9 0 17-4 24-10l49-50 149 0c40 0 72-32 72-72l0-218c5-40-29-72-70-72z m-354 390c-24 0-41-19-41-40l0-276c0-23 20-40 41-40l354 0c24 0 41 19 41 40l0 216c0 23-20 40-41 40l-149 0c-9 0-17 5-24 11l-49 49z"/>
      <glyph glyph-name="font" unicode="&#57360;"
             d="M117 386l-64-2c-23 0-34-2-40-13-4-6-7-10-7-15 0-4-2-4-4-4-2 0-4 2-4 6 0 7 8 45 8 49 3 7 3 9 5 9 4 0 8-4 17-4 13-2 27-2 42-2l167 0c13 0 23 2 30 2 6 0 10 0 10 0 2 0 5-2 5-9 0-8-3-38-3-49 0-4-2-6-4-6-4 0-4 2-4 8l0 5c0 10-13 23-49 23l-53 2 0-173c0-38 0-72 2-89 2-13 4-22 17-24 6 0 15-2 21-2 4 0 6-2 6-4 0-2-4-4-8-4-28 0-53 2-66 2-11 0-36-2-54-2-6 0-8 2-8 4 0 2 2 4 6 4 7 0 11 0 15 2 9 2 11 11 13 24 2 17 2 51 2 89l0 173z m267-81l-47-2c-19 0-26-2-30-9-4-4-4-8-6-10 0-2-2-5-4-5-3 0-3 3-3 5 0 4 7 34 7 36 0 4 2 6 4 6 2 0 6-2 13-4 8-2 21-2 32-2l128 0c11 0 17 0 21 2 4 0 9 2 9 2 4 2 4 0 4-4 0-6 0-30 0-36 0-5-2-5-2-5-2 0-4 3-4 7l0 4c0 9-9 17-39 17l-40 0 0-124c0-27 0-51 2-66 2-8 2-15 13-15 4 0 10-2 17-2 4 0 4-2 4-4 0-2-2-4-6-4-22 0-43 2-52 2-6 0-30-2-40-2-4 0-7 2-7 4 0 2 3 4 5 4 4 0 8 0 10 2 7 3 9 7 9 17 2 9 2 35 2 62z"/>
      <glyph glyph-name="forgot-password" unicode="&#57361;"
             d="M435 339l-66 0 0 54c0 57-47 102-102 102-58 0-103-47-103-102l0-54-85 0c-28 0-51-23-51-51l0-220c0-27 23-51 51-51l356 0c28 0 51 24 51 51l0 220c0 28-23 51-51 51z m-243 54c0 40 32 72 73 72 40 0 72-32 72-72l0-54-145 0z m265-325c0-13-11-21-22-21l-358 0c-13 0-22 11-22 21l0 220c0 13 11 21 22 21l356 0c13 0 21-10 21-21l0-220z m-169 182c-9 4-17 4-28 4-8 0-17-2-27-4-9-3-18-7-24-13-2-2-4-4-6-7-2-2-2-4-2-8 0-4 2-9 4-13 2-4 6-4 10-4 5 0 9 2 13 4l7 4c4 2 8 5 12 7 5 2 7 2 11 2 4 0 9 0 11-2 2-2 4-5 4-9 0-4 0-6-2-8-2-2-4-7-9-11-4-4-8-11-12-15-3-4-5-11-5-19 0-4 2-9 5-11 2-2 6-4 8-4 4 0 7 0 9 2 2 2 4 4 4 9 0 4 2 6 4 8 2 2 7 7 13 11 6 4 11 8 13 13 4 4 6 8 8 12 2 5 5 11 5 15 0 9-3 15-7 22-4 6-10 10-19 15z m-30-118c-6 0-13-2-17-6-4-4-6-11-6-17 0-7 2-13 6-17 4-5 11-7 17-7 7 0 13 2 17 7 4 4 7 10 7 17 0 6-3 13-7 17-6 4-10 6-17 6z"/>
      <glyph glyph-name="forward" unicode="&#57362;"
             d="M36 6c-8 0-15 7-15 15l0 7c-2 15-4 30-4 45 0 142 98 268 237 302l0 116c0 6 4 12 8 15 7 2 13 2 17-3l207-187c5-2 5-7 5-13 0-6-2-9-5-13l-207-188c-4-4-10-4-17-2-6 2-8 9-8 15l0 100c-103-17-184-96-203-198 0-6-6-13-15-11 0-2 0-2 0 0z"/>
      <glyph glyph-name="forward-o" unicode="&#57363;"
             d="M36 6c-8 0-15 7-15 15l0 7c-2 15-4 30-4 45 0 142 98 268 237 302l0 116c0 6 4 12 8 15 7 2 13 2 17-3l207-187c5-2 5-7 5-13 0-6-2-9-5-13l-207-188c-4-4-10-4-17-2-6 2-8 9-8 15l0 100c-103-17-184-96-203-198 0-6-6-13-15-11 0-2 0-2 0 0z m246 241c4-2 4-6 4-12l0-84 168 152-168 151 0-89c0-9-7-15-13-15-117-26-205-122-222-239 43 79 124 132 218 141 0 0 0 0 2 0 4 0 8-2 11-5z"/>
      <glyph glyph-name="frequent" unicode="&#57364;"
             d="M288 484c-100 0-186-66-211-160l-64-4 89-132 71 143-62-5c26 75 96 126 177 126 102 0 188-83 188-187 0-103-83-188-188-188-9 0-17-7-17-17 0-11 6-17 17-17 122 0 220 98 220 219 0 126-98 222-220 222z m66-217c0 36-30 66-66 66-36 0-66-30-66-66 0-37 30-66 66-66 36 0 66 29 66 66z m-100 0c0 19 15 34 34 34 19 0 34-15 34-34 0-20-15-34-34-34-19 0-34 14-34 34z"/>
      <glyph glyph-name="geo-location" unicode="&#57365;"
             d="M256 399c-30 0-58-11-79-32-21-21-32-49-32-79 0-30 11-58 32-79 21-21 49-32 79-32 30 0 58 11 79 32 21 21 32 49 32 79 0 30-11 58-32 79-21 21-49 32-79 32z m58-169c-32-32-84-32-116 0-15 15-23 37-23 58 0 21 8 43 23 58 17 17 37 23 58 23 21 0 43-8 58-23 15-15 23-37 23-58 0-21-8-41-23-58z m87 205c-38 39-90 60-145 60-55 0-107-21-145-60-81-81-81-211 0-292l111-111c8-9 21-15 34-15 13 0 26 4 34 15l111 111c81 81 81 211 0 292z m-19-271l-111-111c-9-8-19-8-28 0l-111 111c-68 69-68 182 0 250 32 34 79 51 124 51 45 0 92-17 126-51 68-68 68-181 0-250z"/>
      <glyph glyph-name="graduation" unicode="&#57366;"
             d="M353 74c-5 0-7-2-10-5l-8-33c0-5 3-8 5-10l3 0c3 0 8 2 8 5l7 33c3 5 0 10-5 10z m-100 167l93 38c5 3 5 8 5 10-3 5-8 5-11 5l-87-38-230 95 0 5c0 2-5 8-8 8-5 0-10-6-10-8l0-8c0-2 3-5 5-8l238-99c3 0 3 0 5 0z m98-85c-3 5-8 5-11 3-15-8-40-18-79-18l0 74c0 5-2 8-8 8-5 0-7-3-7-8l0-74c-103 2-136 64-141 74l0 56c0 5-3 11-8 11-5 0-7-6-7-11l0-59c2-2 35-87 163-87 44 0 77 11 95 21 3 0 5 5 3 10z m25-89c-5 0-7-3-7-8l0-26c0-5 2-7 7-7 5 0 8 2 8 7l0 26c0 5-3 8-8 8z m116 297c-6 0-8-3-8-8l0-3-100-41 0 13 110 46c3 0 5 5 5 8 0 2-2 5-5 8l-238 99c-3 0-5 0-5 0l-241-99c-2 0-5-3-5-8 0-3 3-5 5-8l238-100 5 0 87 36c6 3 8 8 8 13-2 5-8 5-10 5l-82-33-220 87 217 89 218-89-95-39-89 34c0 2 0 2 0 5 0 13-16 25-34 25-17 0-33-10-33-25 0-13 16-26 33-26 8 0 16 3 21 5l95-35 0-203c-11-2-16-12-16-23 0-13 11-25 26-25 13 0 25 10 25 25 0 11-7 21-15 23l0 46c23 18 33 41 33 44l0 61c0 5-2 8-7 8-5 0-8-3-8-8l0-56c-3-3-5-15-15-26l0 103 110 46c2 0 5 5 5 8l0 10c-8 2-10 8-15 8z m-239 7c-10 0-15 5-15 8 0 2 8 8 15 8 8 0 16-6 16-8 0-3-5-8-16-8z m123-279c-5 0-7 3-7 8 0 5 2 8 7 8 5 0 8-3 8-8 0-5-3-8-8-8z m34-23c0 5-6 8-11 5-5 0-7-5-5-10l8-33c0-3 5-5 8-5l2 0c5 0 8 5 5 10z"/>
      <glyph glyph-name="growth" unicode="&#57367;"
             d="M508 384l-154-32 43-47-103-92-93 75c-7 4-15 4-22 0l-170-145c-7-6-9-15-3-24 3-4 9-6 13-6 4 0 7 2 11 4l162 139 94-75c6-4 15-4 21 0l111 101 43-47z"/>
      <glyph glyph-name="home" unicode="&#57368;"
             d="M499 26l-64 0 0 12c0 8-5 13-13 13-7 0-12-5-12-13l0-12-77 0 0 38c0 8-5 13-13 13-8 0-13-5-13-13l0-38-102 0 0 179 102 0 0-36c0-8 5-13 13-13 8 0 13 5 13 13l0 49c0 7-5 12-13 12l-128 0c-8 0-13-5-13-12l0-192-77 0 0 115c0 7-5 13-12 13-8 0-13-6-13-13l0-115-64 0c-8 0-13-6-13-13 0-8 5-13 13-13l486 0c8 0 13 5 13 13 0 7-5 13-13 13z m5 330l-230 153c-3 3-8 3-13 0l-156-94-100-59c-2-3-5-5-5-10l0-52c0-5 3-7 8-10 2-2 7-2 12 0l57 33 0-74c0-5 5-13 13-13 7 0 12 8 12 13l0 90 167 100 141-95 0-197c0-8 5-13 12-13 8 0 13 5 13 13l0 182 57-39c2-2 5-2 7-2 3 0 5 0 5 2 5 0 8 5 8 10l0 52c0 5-3 7-8 10z m-18-39l-53 36c-3 3-5 5-8 5l-151 100c-3 3-8 3-13 0l-235-141 0 21 243 146 217-146z m-268-61c7 0 12 5 12 13l0 51c0 8-5 13-12 13l-52 0c-7 0-12-5-12-13l0-51c0-8 5-13 12-13z m-39 51l26 0 0-25-26 0z m179-13c0 21-18 39-38 39-20 0-38-18-38-39 0-20 18-38 38-38 20 0 38 18 38 38z m-51 0c0 8 5 13 13 13 8 0 13-5 13-13 0-7-5-12-13-12-8 0-13 5-13 12z m-205-102c0-7-5-13-12-13-7 0-13 6-13 13 0 7 6 13 13 13 7 0 12-6 12-13z m333-102c0-7-6-13-13-13-7 0-12 6-12 13 0 7 5 12 12 12 7 0 13-5 13-12z m-102 25c0-7-6-13-13-13-7 0-13 6-13 13 0 7 6 13 13 13 7 0 13-6 13-13z"/>
      <glyph glyph-name="hotel-booking" unicode="&#57369;"
             d="M491 467l-39 0c-8 0-17-6-17-17 0-11 7-17 17-17l24 0 0-85-438 0 0 85 24 0c8 0 17 6 17 17 0 11-11 17-19 17l-39 0c-8 0-17-6-17-17l0-429c0-8 7-17 17-17l470 0c8 0 17 7 17 17l0 431c0 9-9 15-17 15z m-453-431l0 282 438 0 0-282z m139 399l156 0c8 0 17 7 17 17 0 11-7 17-17 17l-156 0c-8 0-17-6-17-17 0-10 9-17 17-17z m-58-38c9 0 18 6 18 17l0 77c0 8-7 17-18 17-10 0-17-9-17-17l0-79c0-9 9-15 17-15z m274 0c8 0 17 6 17 17l0 77c0 8-7 17-17 17-11 0-15-9-15-17l0-79c0-9 6-15 15-15z m-265-130l-47 0c-6 0-11-5-11-11l0-49c0-6 5-11 11-11l47 0c6 0 11 5 11 11l0 49c0 6-5 11-11 11z m-11-49l-25 0 0 27 27 0 0-27z m158-22l49 0c7 0 11 5 11 11l0 49c0 6-4 11-11 11l-49 0c-6 0-10-5-10-11l0-49c0-6 4-11 10-11z m11 49l28 0 0-27-28 0z m87-49l49 0c7 0 11 5 11 11l0 49c0 6-4 11-11 11l-49 0c-6 0-10-5-10-11l0-49c0-6 4-11 10-11z m11 49l28 0 0-27-28 0z m-256-96l-47 0c-6 0-11-4-11-10l0-49c0-7 5-11 11-11l47 0c6 0 11 4 11 11l0 49c0 6-5 10-11 10z m-11-49l-25 0 0 28 27 0 0-28z m109 49l-49 0c-6 0-11-4-11-10l0-49c0-7 5-11 11-11l49 0c7 0 11 4 11 11l0 49c0 6-4 10-11 10z m-11-49l-27 0 0 28 27 0z m114 39l-45-32-9 15c-2 4-8 6-15 4-4-2-6-9-4-15l13-28c2-2 4-4 6-6 0 0 2 0 2 0 2 0 5 0 7 2l55 40c4 5 7 11 2 15-2 9-8 9-12 5z m-99 117l-44-34-9 15c-2 4-8 6-15 4-4-2-6-8-4-15l13-28c2-2 4-4 6-6 0 0 2 0 2 0 2 0 4 0 7 2l55 41c4 4 6 10 2 15-2 10-8 10-13 6z m197-117l-45-32-9 15c-2 4-8 6-15 4-4-2-6-9-4-15l13-28c2-2 4-4 6-6 0 0 2 0 2 0 3 0 5 0 7 2l55 40c5 5 7 11 2 15-2 9-8 9-12 5z"/>
      <glyph glyph-name="icon" unicode="&#57370;"
             d="M143 506l-60 0c-42 0-77-35-77-77l0-62c0-43 35-77 77-77l62 0c43 0 77 34 77 77l0 62c0 42-36 77-79 77z m47-137c0-26-21-45-45-45l-62 0c-25 0-45 22-45 45l0 60c0 25 22 45 45 45l62 0c26 0 45-22 45-45z m301 137l-184 0c-8 0-17-7-17-17l0-184c0-8 7-17 17-17l184 0c8 0 17 6 17 17l0 186c0 8-9 15-17 15z m-15-184l-152 0 0 152 152 0z m-77-100c-60 0-109-49-109-109 0-60 49-109 109-109 60 0 109 49 109 109 0 60-49 109-109 109z m0-186c-43 0-77 34-77 77 0 43 34 77 77 77 43 0 77-34 77-77 0-43-34-77-77-77z m-184 160c-6 7-17 7-23 0l-70-70-71 70c-6 7-17 7-23 0-7-6-7-17 0-23l70-71-70-70c-7-6-7-17 0-23 2-3 6-5 10-5 5 0 9 2 11 5l70 70 71-70c2-3 6-5 11-5 4 0 8 2 10 5 7 6 7 17 0 23l-70 70 70 71c11 6 11 17 4 23z"/>
      <glyph glyph-name="image" unicode="&#57371;"
             d="M405 442l-298 0c-32 0-58-26-58-58l0-256c0-32 26-60 60-60l298 0c32 0 60 26 60 60l0 256c-2 32-30 58-62 58z m-298-32l298 0c15 0 28-13 28-28l0-115-177-75-85 64-92-73 0 201c2 15 13 26 28 26z m277-69c0-23-19-42-43-42-23 0-42 19-42 42 0 24 19 43 42 43 24 0 43-19 43-43z"/>
      <glyph glyph-name="important" unicode="&#57372;"
             d="M371 115l-17 94 68 66c5 4 7 11 5 17 0 7-7 11-13 13l-94 13-43 85c-6 11-23 11-27 0l-43-85-96-13c-6 0-11-4-13-11-2-6 0-12 4-17l69-68-17-94c0-6 2-13 6-15 4-4 11-4 17-2l85 45 86-45c2-2 4-2 6-2 4 0 7 0 9 2 6 4 8 11 8 17z m81 391l-392 0c-30 0-56-26-56-56l0-390c0-30 26-56 56-56l79 0c8 0 17 7 17 17 0 11-7 17-17 17l-79 0c-13 0-24 11-24 24l0 390c0 13 11 24 24 24l390 0c13 0 24-11 24-24l0-390c0-13-11-24-24-24l-79 0c-8 0-17-6-17-17 0-10 7-17 17-17l79 0c30 0 56 26 56 56l0 392c2 30-24 54-54 54z"/>
      <glyph glyph-name="important-o" unicode="&#57373;"
             d="M371 115l-17 94 68 66c5 4 7 11 5 17 0 7-7 11-13 13l-94 13-43 85c-6 11-23 11-27 0l-43-85-96-13c-6 0-11-4-13-11-2-6 0-12 4-17l69-68-17-94c0-6 2-13 6-15 4-4 11-4 17-2l85 45 86-45c2-2 4-2 6-2 4 0 7 0 9 2 6 4 8 11 8 17z m-36 28l-64 34c-2 2-4 2-6 2-3 0-5 0-7-2l-64-34 11 70c0 5 0 11-4 15l-52 49 71 11c4 0 10 4 13 9l32 64 32-64c2-5 6-9 12-9l71-11-51-49c-5-4-7-8-5-15z m117 363l-392 0c-30 0-56-26-56-56l0-390c0-30 26-56 56-56l79 0c8 0 17 7 17 17 0 11-7 17-17 17l-79 0c-13 0-24 11-24 24l0 390c0 13 11 24 24 24l390 0c13 0 24-11 24-24l0-390c0-13-11-24-24-24l-79 0c-8 0-17-6-17-17 0-10 7-17 17-17l79 0c30 0 56 26 56 56l0 392c2 30-24 54-54 54z"/>
      <glyph glyph-name="inbox" unicode="&#57374;"
             d="M506 228c0 0 0 2 0 2l-79 256c-2 7-9 11-15 11l-312 0c-8 0-15-4-17-11l-77-256c0 0 0-2 0-2 0 0 0-2 0-2l0-196c0-9 7-17 17-17l470 0c8 0 17 6 17 17l0 196c-2 2-4 2-4 2z m-395 237l290 0 68-222-134 0c-9 0-17-6-17-17 0-34-28-62-62-62-34 0-62 28-62 62 0 9-6 17-17 17l-134 0z m365-418l-438 0 0 164 126 0c9-45 47-79 94-79 47 0 85 34 94 79l126 0 0-164z"/>
      <glyph glyph-name="inbuilt-apps" unicode="&#57375;"
             d="M512 352c0 23-19 43-43 43l-76 0c4 8 8 19 8 30 0 36-30 68-68 68-30 0-54-19-64-43-11 26-34 43-64 43-39-2-71-32-71-71 0-10 3-21 9-29l-100 0c-24 0-43-20-43-43 0-17 11-32 28-39l0-211c0-32 25-57 57-57l342 0c32 0 59 25 59 57l0 211c15 7 26 22 26 41z m-260-43l0-100-192 0 0 100z m32 0l170 0 0-100-170 0z m47 150c19 0 36-17 36-37 0-12-6-23-17-29l-56 0 0 29c0 22 17 37 37 37z m-165-37c0 20 17 37 37 37 19 0 36-17 36-37l0-29-53 0c-11 6-20 17-20 29z m-106-322l0 79 192 0 0-104-167 0c-15 0-25 10-25 25z m367-25l-145 0 0 104 170 0 0-79c2-15-10-25-25-25z"/>
      <glyph glyph-name="input" unicode="&#57376;"
             d="M461 474l0 32-410 0 0-32 203 0 0-438-203 0 0-32 410 0 0 32-175 0 0 438z"/>
      <glyph glyph-name="inputnumber" unicode="&#57377;"
             d="M439 107l-366 0c-30 0-56 25-56 55l0 188c0 30 26 55 56 55l369 0c29 0 55-25 55-55l0-188c-2-30-28-55-58-55z m-366 271c-15 0-26-13-26-28l0-188c0-15 13-28 26-28l369 0c15 0 25 13 25 28l0 188c0 15-13 28-25 28z m140-167c7-4 20-8 32-8 26 0 34 17 32 30 0 21-19 29-38 29l-11 0 0 15 11 0c15 0 32 9 32 26 0 13-6 23-26 23-10 0-23-4-30-10l-2 13c9 6 24 10 39 10 27 0 42-17 42-36 0-15-8-28-27-36 17-5 32-17 32-39 0-23-20-45-54-45-17 0-30 5-38 11z"/>
      <glyph glyph-name="invert-color" unicode="&#57378;"
             d="M363 322l-107 105c-6 6-17 6-23 0l-105-105c-64-64-64-168 0-235 32-32 75-49 117-49 43 0 86 17 118 49 64 64 64 171 0 235z m-212-23l94 94 0-323c-34 0-68 13-94 39-53 53-53 138 0 190z"/>
      <glyph glyph-name="keyboard" unicode="&#57379;"
             d="M448 437l-384 0c-32 0-58-25-58-57l0-250c0-32 26-57 58-57l384 0c32 0 58 25 58 57l0 250c2 32-26 57-58 57z m28-305c0-15-11-25-26-25l-386 0c-15 0-26 10-26 25l0 248c0 15 11 25 26 25l384 0c15 0 26-10 26-25l0-248z m-391 190l32 0c2 0 7 2 7 7l0 32c0 2-2 6-7 6l-32 0c-2 0-4-4-4-6l0-32c0-5 2-7 4-7z m77 0l32 0c2 0 7 2 7 7l0 32c0 2-3 6-7 6l-32 0c-2 0-4-4-4-6l0-32c0-5 2-7 4-7z m77 0l32 0c2 0 6 2 6 7l0 32c0 2-2 6-6 6l-32 0c-2 0-4-4-4-6l0-32c0-5 2-7 4-7z m77 0l32 0c2 0 6 2 6 7l0 32c0 2-2 6-6 6l-32 0c-2 0-7-2-7-6l0-32c2-5 5-7 7-7z m111 45l-32 0c-2 0-7-2-7-6l0-32c0-3 2-7 7-7l32 0c2 0 6 2 6 7l0 32c0 2-4 6-6 6z m-308-175l-34 0c-2 0-6-2-6-6l0-32c2-3 4-5 6-5l32 0c2 0 7 2 7 7l0 32c0 2-2 4-5 4z m308 0l-32 0c-2 0-7-2-7-6l0-32c0-3 2-7 7-7l32 0c2 0 6 2 6 7l0 32c0 4-4 6-6 6z m-276 87l-32 0c-2 0-6-2-6-6l0-32c0-2 2-6 6-6l32 0c3 0 7 2 7 6l0 32c0 4-4 6-7 6z m39-4l0-32c0-2 2-6 6-6l32 0c2 0 7 2 7 6l0 32c0 2-2 7-7 7l-32 0c-4-3-6-5-6-7z m77 0l0-32c0-2 2-6 6-6l32 0c2 0 6 2 6 6l0 32c0 2-2 7-6 7l-32 0c-4-3-6-5-6-7z m121 0c0 2-2 7-6 7l-32 0c-2 0-7-3-7-7l0-32c0-2 3-6 7-6l32 0c2 0 6 2 6 6z m-53-87l-158 0c-11 0-19-9-19-19 0-11 8-20 19-20l156 0c10 0 19 9 19 20 2 10-6 19-17 19z"/>
      <glyph glyph-name="like" unicode="&#57380;"
             d="M467 446c-57 60-153 60-211 0-58 60-154 60-211 0-58-60-58-154 0-213l211-212 211 214c60 57 60 153 0 211z"/>
      <glyph glyph-name="like-o" unicode="&#57381;"
             d="M256 26c-4 0-9 2-11 4l-194 194c-60 60-60 158 0 218 56 55 145 59 205 10 28 24 62 34 98 34 41 0 79-15 109-44 30-30 45-69 45-109 0-41-15-79-45-109l-194-194c-4-2-9-4-13-4z m-98 428c-32 0-64-12-85-36-47-47-47-124 0-173l183-181 183 183c24 24 37 54 37 86 0 32-13 64-37 85-23 24-53 36-85 36-32 0-64-12-85-36-7-6-17-6-24 0-23 24-53 36-87 36z"/>
      <glyph glyph-name="link" unicode="&#57382;"
             d="M435 422c-33 34-89 34-125 0l-36-35c-31-31-33-80-8-116l-38-38c-33 26-85 23-115-8l-36-36c-33-33-33-89 0-125 18-18 38-26 61-26 23 0 46 11 62 26l36 36c17 18 25 38 25 61 0 21-5 39-18 54l39 38c15-10 33-17 53-17 23 0 46 10 62 25l38 36c33 33 33 90 0 125z m-197-261c0-18-8-33-18-43l-36-36c-23-23-66-23-89 0-11 13-18 28-18 46 0 18 7 33 18 44l36 35c12 13 28 18 43 18 13 0 26-2 33-10l-59-61c-5-6-5-13 0-18 3-3 6-3 11-3 5 0 7 0 10 3l61 61c6-10 8-23 8-36z m179 154l-36-36c-20-20-53-23-79-8l62 62c5 5 5 13 0 18-6 5-13 5-18 0l-62-62c-8 11-10 23-10 34 0 17 8 33 18 43l36 36c12 13 28 18 43 18 16 0 33-5 44-18 13-10 20-26 20-44 0-18-7-33-18-43z"/>
      <glyph glyph-name="lising-dbrd" unicode="&#57383;"
             d="M422 333l-230 0c-8 0-13 5-13 13 0 7 5 12 13 12l230 0c8 0 13-5 13-12 0-8-5-13-13-13z m-307 0l-25 0c-8 0-13 5-13 13 0 7 5 12 13 12l25 0c8 0 13-5 13-12 0-8-5-13-13-13z m307-77l-230 0c-8 0-13 5-13 13 0 7 5 13 13 13l230 0c8 0 13-6 13-13 0-8-5-13-13-13z m-307 0l-25 0c-8 0-13 5-13 13 0 7 5 13 13 13l25 0c8 0 13-6 13-13 0-8-5-13-13-13z m307-77l-230 0c-8 0-13 5-13 13 0 8 5 13 13 13l230 0c8 0 13-5 13-13 0-8-5-13-13-13z m-307 0l-25 0c-8 0-13 5-13 13 0 8 5 13 13 13l25 0c8 0 13-5 13-13 0-8-5-13-13-13z"/>
      <glyph glyph-name="list-select-o" unicode="&#57384;"
             d="M491 506l-470 0c-8 0-15-7-15-15l0-470c0-8 7-17 17-17l470 0c8 0 17 7 17 17l0 470c-2 8-11 15-19 15z m-15-470l-438 0 0 438 438 0z m-307 133c2-5 8-7 12-7 5 0 7 0 9 2l215 158c7 4 9 15 5 21-5 7-15 9-22 5l-205-147-55 66c-6 6-15 8-23 2-7-7-9-15-3-24z"/>
      <glyph glyph-name="listing-dbrd" unicode="&#57385;"
             d="M435 358l-205 0c-15 0-25 11-25 26 0 13 10 26 25 26l205 0c13 0 26-11 26-26 0-15-10-26-26-26z m0-128l-205 0c-12 0-25 11-25 26 0 13 10 26 25 26l205 0c13 0 26-11 26-26 0-15-10-26-26-26z m0-128l-205 0c-12 0-25 11-25 26 0 13 10 26 25 26l205 0c13 0 26-11 26-26 0-15-10-26-26-26z m-330 256l-28 0c-13 0-26 11-26 26 0 13 10 26 26 26l25 0c13 0 26-11 26-26 3-15-10-26-23-26z m0-128l-28 0c-13 0-26 11-26 26 0 13 10 26 26 26l25 0c13 0 26-11 26-26 3-15-10-26-23-26z m0-128l-28 0c-13 0-26 11-26 26 0 13 10 26 26 26l25 0c13 0 26-11 26-26 3-15-10-26-23-26z"/>
      <glyph glyph-name="litcoin" unicode="&#57386;"
             d="M452 250c-6 0-10-5-13-11-14-85-89-149-177-149-98 0-179 81-179 179 0 98 81 179 179 179 62 0 122-34 154-90 4-6 11-8 17-4 6 4 9 11 4 17-36 62-102 100-175 100-111 0-202-91-202-204 0-113 91-205 202-205 101 0 184 72 201 175 0 6-4 10-11 13z m5 49c0-6-5-11-11-11-6 0-11 5-11 11 0 6 5 10 11 10 6 0 11-4 11-10z m-252-113c2-3 4-5 8-5l128 0c7 0 11 5 11 11 0 6-4 11-11 11l-113 0 13 57 45 15c6 2 8 7 6 13-2 6-6 9-13 6l-32-10 20 77c0 6-2 10-9 12-6 0-11-2-13-8l-23-92-43-15c-6-2-8-6-6-13 2-4 6-6 10-6 0 0 3 0 3 0l32 11-15-56c0-2 0-6 2-8z"/>
      <glyph glyph-name="localeprovider" unicode="&#57387;"
             d="M452 369l-392 0c-30 0-56-26-56-55l0-118c0-30 26-55 56-55l390 0c30 0 56 25 56 55l0 118c2 32-24 55-54 55z m-414-173l0 118c0 12 11 23 24 23l179 0 0-164-181 0c-13 2-22 13-22 23z m438 0c0-13-11-23-24-23l-179 0 0 164 179 0c13 0 24-11 24-23z m-295 17l-49 0 0 34 45 0c2 0 6 0 6 3 3 2 3 4 3 6 0 2 0 4-3 6-2 3-4 3-6 3l-45 0 0 32 49 0c2 0 7 0 7 2 2 2 2 4 2 6 0 2 0 4-2 6-2 3-5 3-7 3l-59 0c-3 0-7 0-9-3-2-2-2-4-2-8l0-96c0-2 0-6 2-6 2-3 4-3 9-3l59 0c2 0 7 0 7 3 2 2 2 4 2 6 0 2 0 4-2 6-2 0-5 0-7 0z m250 84l-47 0 0 10c0 7-4 11-11 11-6 0-10-7-10-11l0-10-49 0c-7 0-11-5-11-11 0-7 4-11 11-11l19 0c0-21 6-42 19-55-6 0-13 2-15 2-6 2-11-2-13-7-2-6 2-10 7-12 4-2 12-2 21-2 9 0 17 2 26 4 8-2 15-4 21-4 11 0 19 2 23 4 7 2 9 8 7 13-2 6-9 8-13 6-4-2-9-2-15-2 13 15 19 34 17 55l13 0c6 0 11 5 11 11 0 6-5 9-11 9z m-56-71c-14 9-23 28-23 49l45 0c2-21-7-38-22-49z"/>
      <glyph glyph-name="location" unicode="&#57388;"
             d="M245 4c-6 0-10 2-12 9l-141 234c-13 26-17 52-17 77 0 101 81 182 181 182 100 0 181-81 181-182 0-25-6-51-17-74 0 0 0-3-2-3l-162-234c0-4-4-9-11-9z m11 470c-83 0-149-69-149-150 0-21 4-42 12-62l128-211 148 214c8 19 12 40 12 59-2 83-68 150-151 150z m151-218z m-151 4c-41 0-75 34-75 75 0 40 34 75 75 75 41 0 75-35 75-75 0-41-34-75-75-75z m0 118c-23 0-43-20-43-43 0-24 20-43 43-43 23 0 43 19 43 43 0 23-20 43-43 43z"/>
      <glyph glyph-name="lock-screen" unicode="&#57389;"
             d="M448 506l-384 0c-32 0-58-26-58-58l0-250c0-32 26-55 56-55l386 0c32 0 55 26 55 55l0 250c3 32-23 58-55 58z m28-305c0-15-13-28-28-28l-384 0c-15 0-28 13-28 28l0 247c0 15 13 28 28 28l384 0c15 0 28-13 28-28z m-107-165l-102 0 0 73c0 8-7 15-15 15-9 0-15-7-15-15l0-73-103 0c-8 0-15-6-15-15 0-8 7-15 15-15l235 0c9 0 15 7 15 15 0 9-6 15-15 15z m-38 339l-20 0 0 13c0 28-23 51-51 51-27 0-51-21-51-51l0-13-28 0c-15 0-30-12-30-29l0-92c0-17 13-30 30-30l148 0c17 0 29 13 29 30l0 92c3 17-12 29-27 29z m-92 13c0 13 11 22 21 22 13 0 22-11 22-22l0-13-43 0z m92-134l-150 0 0 92 150 0z"/>
      <glyph glyph-name="long-arrow" unicode="&#57390;" d="M382 371l-17-15 57-57-379 0 0-22 379 0-57-57 17-15 81 83z"/>
      <glyph glyph-name="long-arrow-down" unicode="&#57391;"
             d="M266 61l102 102c5 5 5 13 0 17-5 5-12 5-17 0l-83-80 0 341c0 8-5 12-12 12-7 0-12-4-12-12l0-341-83 83c-5 5-12 5-17 0-3-3-3-5-3-10 0-5 0-7 3-10l102-102c5-5 15-5 20 0z"/>
      <glyph glyph-name="long-arrow-left" unicode="&#57392;"
             d="M51 246l103-102c4-5 12-5 17 0 5 5 5 12 0 17l-81 83 342 0c7 0 12 5 12 12 0 7-5 12-12 12l-342 0 83 83c5 5 5 12 0 17-2 3-5 3-10 3-5 0-7 0-9-3l-103-102c-2-5-2-15 0-20z"/>
      <glyph glyph-name="long-arrow-right" unicode="&#57393;"
             d="M441 266l-102 102c-5 5-12 5-17 0-5-5-5-12 0-17l83-83-342 0c-9 0-14-5-14-12 0-7 5-12 12-12l341 0-83-83c-4-5-4-12 0-17 3-3 5-3 10-3 5 0 7 0 10 3l102 102c5 5 5 15 0 20z"/>
      <glyph glyph-name="long-arrow-up" unicode="&#57394;"
             d="M246 451l-102-105c-5-5-5-12 0-17 5-5 12-5 17 0l83 83 0-341c0-8 5-12 12-12 7 0 12 4 12 12l0 341 83-83c5-5 12-5 17 0 3 3 3 5 3 10 0 5 0 7-3 10l-102 102c-5 5-15 5-20 0z"/>
      <glyph glyph-name="mail-open" unicode="&#57395;"
             d="M486 378l-57 38 0 58c0 21-17 38-39 38l-268 0c-22 0-39-17-39-38l0-60-57-36c-17-11-26-30-26-49l0-269c0-19 9-37 23-47 11-9 22-13 37-13l392 0c32 0 60 26 60 60l0 269c0 19-9 38-26 49z m-450-318l0 269c0 2 0 4 2 6l139-139-139-143c-2 2-2 5-2 7z m167 111l27-28c9-9 17-11 28-11 11 0 19 5 28 11l28 28 136-137-380 0z m132 25l139 139c0-2 2-4 2-6l0-269c0 0 0-2 0-2z m113 165l-19-20 0 30z m-326 115l268 0c3 0 3-2 3-2l0-169-135-134c-2-2-2-2-4 0l-135 134 0 169c0 2 0 2 3 2z m-39-105l0-30-19 20z m94 26l158 0c11 0 17 8 17 17 0 8-9 17-17 17l-158 0c-11 0-17-9-17-17 0-9 6-17 17-17z m0-60l158 0c11 0 17 9 17 17 0 9-9 17-17 17l-158 0c-11 0-17-8-17-17 0-8 6-17 17-17z m0-60l100 0c11 0 17 9 17 17 0 9-8 17-17 17l-100 0c-11 0-17-8-17-17 0-8 6-17 17-17z"/>
      <glyph glyph-name="map-clustering" unicode="&#57396;"
             d="M256 369c-62 0-113-51-113-113 0-62 51-113 113-113 62 0 113 51 113 113 0 62-51 113-113 113z m0-196c-45 0-83 36-83 83 0 45 36 83 83 83 45 0 83-36 83-83 0-45-38-83-83-83z m0 333c-137 0-250-113-250-250 0-137 113-250 250-250 137 0 250 113 250 250 0 137-113 250-250 250z m0-470c-122 0-220 98-220 220 0 122 98 220 220 220 122 0 220-98 220-220 0-122-98-220-220-220z"/>
      <glyph glyph-name="map-directions" unicode="&#57397;"
             d="M452 489c-4 4-10 4-17 2l-373-209c-7-3-9-11-7-17 0-5 7-9 13-9l197-13 25-209c0-6 7-13 13-13 0 0 0 0 2 0 6 0 13 5 15 11l139 442c0 4-2 10-7 15z m-141-384l-19 153c0 7-6 13-13 13l-157 11 298 166z"/>
      <glyph glyph-name="map-drawing" unicode="&#57398;"
             d="M407 415l38 38 50-50-38-38z m-168-223l58 13 149 149-49 49-150-147z m213 98c-8 0-17-6-17-17l0-188-111 54 0 34c0 8-6 17-17 17-10 0-17-7-17-17l0-34-109-54 0 284 109 53 0-61c0-9 7-18 17-18 11 0 17 7 17 18l0 85c0 4-2 6-2 8-4 9-13 11-21 7l-132-64-128 66c-5 2-11 2-15 0-5-2-9-9-9-13l0-316c0-6 4-10 9-15l130-68c2-2 6-4 10-4 0 0 0 0 3 0 2 0 4 0 6 2l130 62c0 0 2 0 2 0 2 0 2 0 4 0l133-64c4-2 10-2 15 0 4 2 6 8 6 13l0 211c2 13-4 19-13 19z m-403 135l102-54 0-279-102 53z"/>
      <glyph glyph-name="map-event-listener" unicode="&#57399;"
             d="M452 467l-392 0c-30 0-54-23-54-53l0-196c0-30 24-54 54-54l64 0 0-102c0-7 4-11 8-13 2 0 5-2 7-2 4 0 8 2 10 4l113 113 190 0c30 0 54 24 54 54l0 194c0 30-24 55-54 55z m24-249c0-13-11-24-24-24l-196 0c-4 0-9-2-11-4l-91-92 0 81c0 9-7 15-15 15l-79 0c-13 0-24 11-24 24l0 194c0 13 11 23 24 23l390 0c13 0 24-10 24-23l0-194z m-83 151l-274 0c-8 0-14-6-14-15 0-8 6-15 14-15l274 0c8 0 14 7 14 15 0 9-6 15-14 15z m0-79l-274 0c-8 0-14-6-14-15 0-8 6-15 14-15l274 0c8 0 14 7 14 15 0 9-6 15-14 15z"/>
      <glyph glyph-name="map-google" unicode="&#57400;"
             d="M497 491c-4 2-11 2-17-2l-134-94-175 96c-2 0-5 2-7 2-4 0-6-2-8-2l-143-86c-4-4-7-8-7-15l0-369c0-6 5-12 9-15 2 0 4-2 6-2 5 0 7 2 11 5l134 106 175-109c2-2 5-2 7-2 2 0 4 0 6 2l143 86c4 2 9 8 9 13l0 371c2 6-3 13-9 15z m-318-41l154-83 0-318-154 94z m-141-68l109 66 0-305-111-88 0 327z m438-267l-111-66 0 320 111 77z"/>
      <glyph glyph-name="map-km-layer" unicode="&#57401;"
             d="M495 254l-51 30 53 34c4 2 6 8 6 13 0 4-2 10-8 12l-196 107c-5 2-11 2-15 0l-267-156c-4-2-6-6-6-12 0-7 2-11 6-13l53-32-53-32c-4-2-6-9-6-13 0-4 2-11 6-13l205-119c2-2 4-2 6-2 2 0 7 0 9 2l256 164c4 2 6 9 6 13 2 8 0 13-4 17z m-203 166l167-91-229-148-175 103z m-62-328l-175 102 47 28 122-71c2-2 4-2 6-2 3 0 7 0 9 2l177 114 45-26z"/>
      <glyph glyph-name="map-overlay" unicode="&#57402;"
             d="M433 369l-83 0 0 83c0 30-24 54-53 54l-216 0c-30 0-53-24-53-54l0-254c0-29 23-53 53-53l83 0 0-83c0-30 24-53 54-53l215 0c30 0 53 23 53 53l0 252c0 29-25 55-53 55z m-352-196c-13 0-23 10-23 23l0 256c0 13 10 24 23 24l216 0c12 0 23-11 23-24l0-83-102 0c-30 0-54-23-54-53l0-141-83 0z m376-113c0-13-11-24-24-24l-215 0c-13 0-24 11-24 24l0 83 103 0c29 0 53 23 53 53l0 143 83 0c13 0 24-10 24-23z"/>
      <glyph glyph-name="map-popup-info" unicode="&#57403;"
             d="M433 486l-215 0c-30 0-54-23-54-53l0-45-83 0c-30 0-53-23-53-53l0-254c0-30 23-53 53-53l216 0c29 0 53 23 53 53l0 45 83 0c30 0 53 23 53 53l0 252c0 30-25 55-53 55z m-113-407c0-13-11-24-23-24l-216 0c-13 0-23 11-23 24l0 256c0 13 10 23 23 23l83 0 0-181c0-30 24-53 54-53l102 0z m137 98c0-13-11-23-24-23l-215 0c-13 0-24 10-24 23l0 254c0 13 11 23 24 23l215 0c13 0 24-10 24-23z m-64 211l-69 0c-8 0-15-6-15-15 0-8 7-15 15-15l32 0-111-111c-6-6-6-14 0-21 2-2 7-4 11-4 4 0 9 2 11 4l111 111 0-32c0-8 6-15 15-15 8 0 14 7 14 15l0 68c0 9-6 15-14 15z"/>
      <glyph glyph-name="map-selectable" unicode="&#57404;"
             d="M158 55l-77 0c-13 0-23 11-23 24 0 8-9 15-15 13-9 0-15-9-13-15 2-28 25-49 53-49l79 0c9 0 15 6 15 15-4 6-11 12-19 12z m-117 146c8 0 14 6 14 14l0 137c0 9-6 15-14 15-9 0-15-9-15-15l0-139c0-6 6-12 15-12z m307 256l83 0c11 0 21-9 23-20 3-6 9-10 15-10 0 0 2 0 2 0 9 2 13 8 11 17-4 25-28 42-53 42l-83 0c-9 0-15-6-15-15 0-8 8-14 17-14z m-137 29l-130 0c-2 0-4 0-8 0-9-2-13-10-13-17 0-6 6-12 15-12 0 0 2 0 2 0 2 0 2 0 4 0l132 0c9 0 15 6 15 14 0 9-8 15-17 15z m260-168c-8 0-14-7-14-15l0-137c0-8 6-15 14-15 9 0 15 7 15 15l0 137c0 8-6 15-15 15z m-32-263c-2 0-4 0-6 0l-136 0c-9 0-15-6-15-14 0-9 6-15 15-15l136 0c4 0 11 0 15 2 9 2 13 10 11 19-5 6-13 13-20 8z"/>
      <glyph glyph-name="map-simple" unicode="&#57405;"
             d="M454 382l-132 64c-4 2-8 2-13 0l-121-60-118 60c-4 2-8 2-15 0-4-2-6-7-6-13l0-290c0-6 2-11 9-13l119-64c2 0 6-2 11-2 2 0 4 0 6 2l120 58c0 0 2 0 2 0 2 0 2 0 2 0l121-58c3 0 5-2 7-2 2 0 6 0 8 2 5 2 7 7 7 13l0 288c2 6-2 11-7 15z m-251-21l100 49 0-261-100-49z m-124 49l94-49 0-256-94 49z m354-308l-100 47 0 258 100-49z"/>
      <glyph glyph-name="map-street-view" unicode="&#57406;"
             d="M378 147c-9 2-15-2-17-10-3-9 2-15 10-18 47-10 64-27 64-34 0-15-64-47-179-47-115 0-179 32-179 47 0 7 17 24 62 34 8 0 12 9 10 15-2 9-10 13-17 11-55-15-83-36-83-62 0-49 105-77 207-77 102 0 207 26 207 77 0 28-28 49-85 64z m-216 32l24 0c2 0 4 0 6 2l0-96c0-10 9-19 19-19l90 0c10 0 19 9 19 19l0 96 23 0c24 0 43 15 43 34l0 99c0 29-32 55-70 55l-124 0c-38 0-70-26-70-55l0-101c0-19 17-34 40-34z m128-85l-70 0 0 183 70 0z m-139 220c0 12 18 25 43 25l122 0c25 0 42-13 42-25l0-101c0-2-4-4-12-4l-26 0 0 79c0 11-9 19-19 19l-90 0c-10 0-19-8-19-19l0-79c-2 0-4 2-6 2l-24 0c-8 0-13 4-13 4l0 99z m105 61c36 0 64 28 64 64 0 37-28 64-64 64-36 0-64-27-64-64 0-34 28-64 64-64z m0 101c19 0 34-15 34-34 0-22-15-37-34-37-19 0-34 15-34 34 0 20 15 37 34 37z"/>
      <glyph glyph-name="map-styled" unicode="&#57407;"
             d="M448 181c-9 0-15-6-15-15l0-64-100 47 0 75c0 9-7 15-15 15-9 0-15-6-15-15l0-75-100-49 0 66c0 9-7 15-15 15-9 0-15-6-15-15l0-61-94 49 0 79c0 8-6 14-15 14-9 0-15-6-15-14l0-88c0-6 2-11 9-13l119-64c2-2 6-4 11-4 2 0 4 0 6 2l120 58c0 0 2 0 2 0 2 0 2 0 2 0l121-58c3 0 5-2 7-2 2 0 6 0 8 2 5 2 7 7 7 13l0 87c2 9-4 15-13 15z m6 201l-132 64c-4 2-8 2-13 0l-121-60-118 60c-4 2-8 2-15 0-4-2-6-7-6-13l0-87c0-9 6-15 15-15 9 0 15 6 15 15l0 64 94-49 0-79c0-9 6-15 15-15 8 0 15 6 15 15l0 79 100 49 0-69c0-8 6-15 15-15 8 0 15 7 15 15l0 66 100-49 0-79c0-8 6-14 15-14 9 0 15 6 15 14l0 88c0 6-4 11-9 15z"/>
      <glyph glyph-name="map-traffic-layer" unicode="&#57408;"
             d="M452 446l-392 0c-30 0-54-24-54-53l0-274c0-29 24-53 54-53l390 0c30 0 53 24 53 53l0 274c3 29-21 53-51 53z m24-53l0-122-107 0 0 147 83 0c13 0 24-13 24-25z m-243-152l106 0 0-147-106 0z m0 30l0 147 106 0 0-147z m-197-152l0 274c0 12 11 23 24 23l141 0 0-322-141 0c-13 0-24 13-24 25z m416-25l-83 0 0 147 107 0 0-122c0-12-11-25-24-25z"/>
      <glyph glyph-name="megaphone" unicode="&#57409;"
             d="M256 115c-6 2-11 0-15-6l-2-7c-2-4-9-8-13-6l-124 53c-2 0-4 2-6 7-2 4 0 6 0 8l2 7c2 6 0 10-6 15-7 2-11 0-15-7l0-8c-4-9-4-17 0-24 4-8 8-15 17-17l124-51c4-2 8-2 12-2 13 0 24 6 30 19l2 6c3 5 0 11-6 13z m85 354c-23 0-42-19-42-42l0-26-235-98 0 6c0 17-15 32-32 32-17 0-32-15-32-32l0-106c0-17 15-32 32-32 17 0 32 15 32 32l0 4 235-98 0-2c0-24 19-43 42-43 24 0 43 19 43 43l0 320c0 23-19 42-43 42z m-309-277c-6 0-11 4-11 11l0 106c0 7 5 11 11 11 6 0 11-4 11-11l0-106c0-7-5-11-11-11z m32 38l0 49 235 99 0-246z m299-123c0-13-9-22-22-22-12 0-21 9-21 22l0 320c0 12 9 21 21 21 13 0 22-9 22-21z m117 149l-64 0c-6 0-11-4-11-11 0-6 5-10 11-10l64 0c6 0 11 4 11 10 0 7-5 11-11 11z m-73 98c3 0 5 0 7 2l60 39c4 2 6 10 2 15-5 4-11 6-15 2l-60-39c-4-2-6-10-2-15 2-2 4-4 8-4z m67-237l-60 39c-4 2-11 2-15-2-2-5-2-11 2-15l60-39c2-2 4-2 6-2 4 0 7 2 9 4 4 5 2 13-2 15z"/>
      <glyph glyph-name="mention" unicode="&#57410;"
             d="M171 169c-17-9-32-11-52-11-46 0-87 34-87 87 0 58 43 107 105 107 49 0 85-34 85-81 0-41-24-66-53-66-13 0-24 6-24 21-8-15-21-21-36-21-17 0-32 13-32 36 0 34 25 66 66 66 13 0 26-2 34-6l-8-51c-3-17 0-24 6-24 13 0 28 15 28 47 0 36-24 64-66 64-43 0-82-34-82-87 0-47 30-73 73-73 15 0 30 2 41 9z m-26 115c-2 0-4 2-8 2-20 0-35-19-35-41 0-10 5-17 15-17 11 0 22 13 24 30z m147 27l15-51c2-6 4-13 4-19 3 6 3 13 5 19l13 51 34 0-22-66c-15-40-25-57-36-68-11-11-23-13-30-15l-6 28c4 0 8 2 13 6 4 2 10 9 12 13 0 2 3 4 3 4 0 2 0 2-3 5l-38 93z m98-83l32 41c7 6 11 13 17 17l-44 0 0 25 83 0 0-19-30-38c-6-7-11-13-17-19l49 0 0-26-90 0z"/>
      <glyph glyph-name="menu" unicode="&#57411;"
             d="M469 367l-426 0c-9 0-15 8-15 17 0 9 6 15 15 15l426 0c9 0 17-6 17-17 0-11-8-15-17-15z m0-128l-426 0c-9 0-17 6-17 17 0 11 6 17 17 17l426 0c9 0 17-6 17-17 0-11-8-17-17-17z m0-128l-426 0c-9 0-17 6-17 17 0 11 6 17 17 17l426 0c9 0 17-6 17-17 0-11-8-17-17-17z"/>
      <glyph glyph-name="menu-down" unicode="&#57412;"
             d="M77 341l358 0c9 0 15-10 9-17l-171-213c-4-4-13-6-17 0l-188 213c-6 7 0 17 9 17z"/>
      <glyph glyph-name="menu-fold" unicode="&#57413;"
             d="M53 399l384 0c9 0 17 6 17 17 0 11-6 17-17 17l-384 0c-8 0-17-6-17-17 0-11 9-17 17-17z m182-160l202 0c9 0 17 6 17 17 0 11-6 17-17 17l-202 0c-9 0-17-6-17-17 0-11 6-17 17-17z m-182-158l384 0c9 0 17 6 17 17 0 11-6 17-17 17l-384 0c-8 0-17-6-17-17 0-11 9-17 17-17z m-4 158l75-43c8-4 19 2 19 11l0 87c0 11-11 17-19 11l-75-43c-8-6-8-19 0-23z"/>
      <glyph glyph-name="menu-left" unicode="&#57414;"
             d="M363 446l0-359c0-8-11-14-17-8l-214 171c-4 4-6 12 0 17l214 187c6 7 17 0 17-8z"/>
      <glyph glyph-name="menu-lines" unicode="&#57415;"
             d="M85 363l363 0 0-22-363 0z m0-86l363 0 0-21-363 0z m150-85l213 0 0-21-213 0z"/>
      <glyph glyph-name="menu-right" unicode="&#57416;"
             d="M149 87l0 359c0 8 11 15 17 8l214-170c4-5 6-13 0-17l-214-188c-6-6-17 0-17 8z"/>
      <glyph glyph-name="menu-select" unicode="&#57417;"
             d="M0 213c79 0 179 86 267 86 81 0 160-86 245-86 6 0-525 0-512 0z"/>
      <glyph glyph-name="menu-unfold" unicode="&#57418;"
             d="M437 399l-384 0c-8 0-17 6-17 15 0 8 7 17 17 17l384 0c9 0 17-6 17-17 0-11-8-15-17-15z m-181-160l-203 0c-8 0-17 6-17 17 0 11 7 17 17 17l203 0c9 0 17-6 17-17 0-11-8-17-17-17z m181-158l-384 0c-8 0-17 6-17 17 0 11 7 17 17 17l384 0c9 0 17-6 17-17 0-11-8-17-17-17z m5 158l-75-43c-9-4-19 2-19 11l0 87c0 11 10 17 19 11l75-43c8-6 8-19 0-23z"/>
      <glyph glyph-name="menu-up" unicode="&#57419;"
             d="M435 149l-358 0c-9 0-15 11-9 17l171 214c4 4 13 6 17 0l188-214c6-6 0-17-9-17z"/>
      <glyph glyph-name="message" unicode="&#57420;"
             d="M457 113l-402 0c-27 0-49 21-49 49l0 188c0 28 22 49 49 49l404 0c27 0 49-21 49-49l0-188c0-28-24-49-51-49z m-402 254c-8 0-17-9-17-17l0-188c0-8 9-17 17-17l404 0c8 0 17 9 17 17l0 188c0 8-9 17-17 17z m94-177c-8 0-17 6-17 17l0 17c0 9 7 17 17 17 11 0 17-6 17-17l0-17c0-11-6-17-17-17z m0 64c-8 0-17 6-17 17l0 40c2 9 9 15 17 15 9 0 17-6 17-15l0-40c0-11-6-17-17-17z m265-4l-181 0c-9 0-18 6-18 17 0 10 7 17 18 17l181 0c8 0 17-7 17-17 0-11-9-17-17-17z"/>
      <glyph glyph-name="mic" unicode="&#57421;"
             d="M256 256c23 0 43 19 43 43l0 128c0 23-20 42-43 42-23 0-43-19-43-42l0-128c0-24 20-43 43-43z m85-177l-70 0 0 85c66 9 117 64 117 133 0 8-6 17-17 17-10 0-17-7-17-17 0-56-45-103-102-103-58 0-96 49-96 105 0 8-7 17-17 17-11 0-15-9-15-17 0-69 51-124 117-133l0-85-70 0c-9 0-17-6-17-17 0-11 6-17 17-17l170 0c9 0 17 6 17 17 0 11-8 15-17 15z"/>
      <glyph glyph-name="modal" unicode="&#57422;"
             d="M429 388l-171 0c-8 0-17-6-17-17 0-10 6-17 17-17l171 0c8 0 17 7 17 17 0 11-9 17-17 17z m19 75l-211 0c-30 0-56-24-56-53l0-101-117 0c-30 0-53-23-53-53l0-154c0-29 23-53 53-53l288 0c30 0 53 24 53 53l0 62 43 0c30 0 53 24 53 54l0 192c0 29-23 53-53 53z m-75-361c0-12-10-21-21-21l-288 0c-13 0-21 11-21 21l0 154c0 13 10 21 21 21l117 0 0-59c0-30 24-54 56-54l136 0z m96 116c0-13-10-22-21-22l-211 0c-13 0-24 11-24 22l0 192c0 12 11 21 24 21l211 0c13 0 21-11 21-21z m-83 76l-68 0c-13 0-24-10-24-23l0-11c0-13 11-23 24-23l68 0c13 0 24 10 24 23l0 11c0 13-11 23-24 23z"/>
      <glyph glyph-name="navigation" unicode="&#57423;"
             d="M256 506c-139 0-250-111-250-250 0-139 113-252 252-252 139 0 252 113 252 252-2 139-115 250-254 250z m0-470c-122 0-218 98-218 220 0 122 96 218 218 218 122 0 220-99 220-220 0-120-98-218-220-218z m109 342l-152-67c-2 0-4-2-4-4l-75-158c-2-4 0-8 3-12 2-3 4-3 8-3 2 0 2 0 4 0l158 75c0 0 2 0 2 2 0 0 2 2 2 4l67 152c2 4 0 8-3 13-2 0-6 0-10-2z m-143-92l62-64-118-56z m77-49l-62 62 109 49z"/>
      <glyph glyph-name="noodles" unicode="&#57424;"
             d="M128 75c0-6-5-11-11-11-6 0-10 5-10 11 0 6 4 10 10 10 6 0 11-4 11-10z m107 85c0-6-5-11-11-11-6 0-11 5-11 11 0 6 5 11 11 11 6 0 11-5 11-11z m275 335c2 4 2 11-2 15-5 2-11 2-15-2l-98-115 30 102c2 4 0 11-7 13-6 2-11 0-13-7l-25-91c-26 27-62 47-103 47-59 0-111-37-130-94-55-15-94-66-94-128l-38 0c-4 0-6-2-9-5-2-2-2-6-2-8 5-24 11-45 22-66 8-19 19-37 34-54 4-6 10-6 15-2 6 5 6 11 2 15-9 11-17 22-24 34l118 0c6 0 10 5 10 11 0 6-4 11-10 11l-128 0c-7 12-11 27-15 42l458 0c-4-15-8-30-15-42l-194 0c-6 0-10-5-10-11 0-6 4-11 10-11l184 0c-41-70-118-117-203-117-32 0-66 9-96 21-6 5-11 2-15-4-4-6-2-13 4-15 32-15 69-23 105-23 124 0 230 89 252 211 0 2 0 6-2 8-3 3-7 5-9 5l-38 0c0 36-17 68-43 89 0 17-4 32-11 47z m-333-260c0 8 6 15 15 15 9 0 15-7 15-15z m51 0c0 19-17 36-36 36-19 0-36-17-36-36l-13 0c0 27 21 49 49 49 28 0 49-22 49-49z m34 0c0 38-32 70-70 70-38 0-70-32-70-70l-13 0c0 47 36 83 83 83 47 0 83-36 83-83z m35 0c0 57-47 104-105 104-58 0-105-47-105-104l-12 0c0 64 53 117 117 117 11 0 23-2 34-4 2 0 2-2 4-2 47-15 79-60 79-111z m-20 121c-4 0-10-2-15-2-4 2-8 4-12 7 8 6 17 8 27 8 15 0 30-6 39-19-5 0-9-2-13-4-6 6-15 10-26 10z m64-4c0 0-2 0 0 0-12 23-38 38-64 38-19 0-36-8-49-21-6 2-10 2-17 4 15 20 41 32 66 32 34 0 64-21 77-51-4-2-8-2-13-2z m-10-117c0 6 4 10 10 10 7 0 11-4 11-10z m42 0c0 17-15 32-32 32-4 0-8-2-12-5 0 3-3 5-3 7 5 2 9 4 15 4 22 0 39-17 39-38z m28 0c0 32-26 59-60 59-8 0-15-2-21-4 0 2-2 4-4 7 8 4 17 6 25 6 39 0 69-32 69-68z m36 0l-6 0c0 49-41 89-90 89-10 0-19-2-27-4 0 2 0 4 0 6 8 3 19 5 27 5 22 0 41-7 56-20 25-17 40-44 40-76z m-59 111c-13 47-54 79-101 79-36 0-72-20-89-52-7 0-11 0-17-2 19 41 62 66 106 66 58 0 107-42 116-98-5 2-9 4-15 7z"/>
      <glyph glyph-name="notification" unicode="&#57425;"
             d="M452 102l-388 0c-6 0-13 5-15 9-2 6-2 13 2 17l28 34 0 167c0 98 81 179 179 179 98 0 179-81 179-179l0-165 28-34c4-4 4-11 2-17-4-6-8-11-15-11z m-356 32l322 0-11 15c-2 2-4 7-4 11l0 169c0 81-66 147-147 147-81 0-147-66-147-147l0-169c0-4-2-6-4-11z m162-125c-36 0-68 17-89 44-5 7-5 17 4 22 6 4 17 4 21-5 15-21 39-32 64-32 26 0 49 13 64 32 4 7 15 9 21 5 7-5 9-15 5-22-22-27-56-44-90-44z"/>
      <glyph glyph-name="notification-new" unicode="&#57426;"
             d="M452 410l-392 0c-30 0-54-26-54-56l0-196c0-30 26-56 56-56l390 0c30 0 56 26 56 56l0 196c0 30-26 56-56 56z m24-252c0-13-11-24-24-24l-392 0c-13 0-24 11-24 24l0 196c0 13 11 24 24 24l390 0c13 0 24-11 24-24l0-196z m-376 121l177 0c9 0 15 7 15 18 0 10-6 17-15 17l-177 0c-8 0-17-7-17-17 0-11 9-18 17-18z m312-46l-312 0c-8 0-17-7-17-18 0-10 7-17 17-17l314 0c8 0 17 7 17 17 0 11-11 18-19 18z m25 117c-6 6-17 6-23 0l-19-19-20 19c-6 6-17 6-23 0-6-7-6-17 0-24l19-19-19-19c-6-6-6-17 0-23 2-3 6-5 11-5 4 0 8 2 10 5l20 19 19-19c2-3 6-5 10-5 5 0 9 2 11 5 6 6 6 17 0 23l-19 19 19 19c11 7 11 17 4 24z"/>
      <glyph glyph-name="orders" unicode="&#57427;"
             d="M471 469l-302 0c-11 0-20-8-20-19l0-151-96 0c-6 0-10-5-10-11l0-68c0-7 4-11 10-11 7 0 11 4 11 11l0 57 85 0 0-170c0-24-19-43-42-43-24 0-43 19-43 43 0 6-4 10-11 10-6 0-10-4-10-10 0-37 27-64 64-64 2 0 4 0 6 0 2 0 2 0 4 0l203 0c6 0 11 4 11 10 0 7-5 11-11 11l-166 0c10 11 17 26 17 43l0 341 298 0 2-384-42 0c-7 0-11-4-11-11 0-6 4-10 11-10l42 0c11 0 20 8 20 19l0 388c0 11-9 19-20 19z m-151-74c-26 0-47-22-47-47l0-15-36 0c-7 0-11-4-11-9l-19-147c0-15 4-26 13-34 15-15 36-13 64-13l72 0c2 0 7 0 9 0 23 0 42 2 53 13 9 8 13 19 11 34l-19 147c0 7-5 9-11 9l-36 0 0 15c4 25-17 47-43 47z m-26-47c0 15 11 25 26 25 15 0 26-10 26-25l0-15-52 0z m99-39l17-136c0-9-3-15-7-19-8-9-25-9-47-9l-72 0c-22 0-41 0-47 9-4 4-7 10-7 17l9 70 8 68 26 0 0-8c0-7 4-11 11-11 6 0 10 4 10 11l0 8 52 0 0-8c0-7 4-11 10-11 7 0 11 4 11 11l0 8z m-9-256c0-6-5-10-11-10-6 0-10 4-10 10 0 6 4 11 10 11 6 0 11-5 11-11z m-320 107c0-6-5-11-11-11-6 0-10 5-10 11 0 6 4 11 10 11 6 0 11-5 11-11z"/>
      <glyph glyph-name="pagination" unicode="&#57428;"
             d="M60 305c-28 0-49-21-49-49 0-28 21-49 49-49 27 0 49 21 49 49 2 28-22 49-49 49z m0-77c-15 0-28 13-28 28 0 15 13 28 28 28 15 0 27-13 27-28 3-15-10-28-27-28z m245 28c0-27-22-49-49-49-27 0-49 22-49 49 0 27 22 49 49 49 27 0 49-22 49-49z m147 49c-27 0-49-21-49-49 0-28 22-49 49-49 28 0 49 21 49 49 0 28-21 49-49 49z m0-77c-15 0-27 13-27 28 0 15 12 28 27 28 15 0 28-13 28-28 0-15-13-28-28-28z"/>
      <glyph glyph-name="phone" unicode="&#57429;"
             d="M194 199c-5 5-13 5-18 0-5-5-5-13 0-18 5-5 13-5 18 0 5 5 5 13 0 18z m-47 202l39-40c-17-28-13-62 8-84l96-96c7-6 9-6 11-6 2 0 8 0 10 2 7 6 7 13 0 19l-96 96c-17 19-17 43 0 60 7 6 7 13 0 19l-59 58c-7 6-15 6-19 0l-20-19c-47-47-47-126 0-171 7-6 13-6 20 0 6 6 6 13 0 19-39 39-39 98 0 137z m239-200c-6 6-13 6-19 0-6-7-6-13 0-20l49-49-11-10c-38-39-98-39-134 0l-21 21c-7 6-13 6-20 0-6-6-6-13 0-19l22-22c23-23 55-36 87-36 32 0 62 11 88 36l17 20c6 6 6 12 0 19z"/>
      <glyph glyph-name="picker" unicode="&#57430;"
             d="M484 382c26 25 26 66 0 92l-19 19c-26 25-66 25-92 0l-68-68c-2-3-2-5-4-7l-39 39c-6 6-17 6-23 0-6-7-6-18 0-24l26-26-248-247c-2-2-4-6-4-11l-7-117c0-4 3-9 5-13 2-2 6-4 10-4l120 6c4 0 8 2 10 5l250 249 26-25c2-3 6-5 10-5 5 0 9 2 11 5 6 6 6 17 0 23l-36 36c2 2 4 2 6 5z m-352-329l-87 88 245 245 88-87z"/>
      </font>
</defs>
</svg>
